BitTorrentTracker PerecTracker.org
BitTorrentTracker PerecTracker.org
    
Регистрация  ·  Вход
 
 · 
Забыли пароль?

  • Брат (Алексей Балабанов) [1997, драма, боевик, SATRip]

    Ответить на тему
     
    Автор Сообщение

    rechyn

    Создавать темы 08-Дек-2015 23:12

           

    [Цитировать]

    Брат-Жанр: драма, боевик
    Год выпуска: 1997
    Продолжительность: 01:34:28-Режиссёр: Алексей Балабанов-В ролях: Сергей Бодров-младший, Виктор Сухоруков (озвучил Алексей Полуян), Сергей Мурзин (озвучил Александр Строев), Светлана Письмиченко, Мария Жукова, Юрий Кузнецов, Андрей Краско, Вячеслав Бутусов, Игорь Лифанов (озвучил Александр Баширов), Ирина Ракшина, Анатолий Журавлёв, Игорь Шибанов, Андрей Федорцов, Алексей Севостьянов, Владимир Ермилов (озвучил Сергей Русскин), Денис Кириллов (озвучил Александр Половцев), Виталий Матвеев, Василина Стрельникова, Татьяна Захарова, Сергей Дебижев (озвучил Валерий Кухарешин), Константин Анисимов-Описание: Демобилизованный из армии, Данила Багров вернулся в родной городок. Но скучная жизнь российской провинции не устраивала его, и он решился податься в Петербург, где, по слухам, уже несколько лет процветает его старший брат. Данила нашёл брата. Но всё оказалось не так просто...-Качество видео: SATRip
    Формат видео: AVI
    Видео: 704x416 (1.69:1), 25 fps, XviD build 73 ~2030 kbps avg, 0.27 bit/pixel
    Аудио: 48.0 KHz, AC3, 2 channels (L, R) ~ 192 kbps-

    Благодарности

    За создание рипа благодарим Basilevs, за огромную работу по подгонке дорожки с DVD благодарим crazywelder

    MediaInfo

    eneral
    Complete name : D:\Брат.avi
    Format : AVI
    Format/Info : Audio Video Interleave
    File size : 1.47 GiB
    Duration : 1h 34mn
    Overall bit rate : 2 232 Kbps
    Writing application : VirtualDubMod 1.5.10.2 (build 2540/release)
    Writing library : VirtualDubMod build 2540/release
    Video
    ID : 0
    Format : MPEG-4 Visual
    Format profile : Advanced Simple@L5
    Format settings, BVOP : 1
    Format settings, QPel : No
    Format settings, GMC : No warppoints
    Format settings, Matrix : Custom
    Codec ID : DX50
    Codec ID/Hint : DivX 5
    Duration : 1h 34mn
    Bit rate : 2 030 Kbps
    Width : 704 pixels
    Height : 416 pixels
    Display aspect ratio : 1.692
    Frame rate : 25.000 fps
    Color space : YUV
    Chroma subsampling : 4:2:0
    Bit depth : 8 bits
    Scan type : Progressive
    Compression mode : Lossy
    Bits/(Pixel*Frame) : 0.277
    Stream size : 1.34 GiB (91%)
    Writing library : XviD 73
    Audio
    ID : 1
    Format : AC-3
    Format/Info : Audio Coding 3
    Mode extension : CM (complete main)
    Codec ID : 2000
    Duration : 1h 34mn
    Bit rate mode : Constant
    Bit rate : 192 Kbps
    Channel(s) : 2 channels
    Channel positions : Front: L R
    Sampling rate : 48.0 KHz
    Bit depth : 16 bits
    Compression mode : Lossy
    Stream size : 130 MiB (9%)
    Alignment : Split accross interleaves
    Interleave, duration : 40 ms (1.00 video frame)
    Interleave, preload duration : 500 ms

    Скриншоты

    Скачать .torrent

    Скачать торрент-файл бесплатно и на максимальной скорости!

    Как скачивать? · Что такое торрент? · Рейтинг и ограничения

    !ВНИМАНИЕ!
    Сайт не распространяет и не хранит электронные версии произведений, а занимается лишь лишь предоставлением доступа к создаваемому пользователями каталогу ссылок на торрент-файлы, которые содержат только списки хеш-сумм, убедительная просьба с жалобами обращаться напрямую к пользователю. Файлы для обмена на трекере предоставлены пользователями сайта, и администрация не несёт ответственности за их содержание. Просьба не заливать файлы, защищенные авторскими правами, а также файлы нелегального содержания!


    _________________
    [Профиль] [ЛС]
    Показать сообщения:    
    Ответить на тему

    Текущее время: Сегодня, в 00:20

    Часовой пояс: GMT + 2



    Вы не можете начинать темы
    Вы не можете отвечать на сообщения
    Вы не можете редактировать свои сообщения
    Вы не можете удалять свои сообщения
    Вы не можете голосовать в опросах
    Вы не можете прикреплять файлы к сообщениям
    Вы не можете скачивать файлы