BitTorrentTracker PerecTracker.org
BitTorrentTracker PerecTracker.org
    
Регистрация  ·  Вход
 
 · 
Забыли пароль?

  • Скорпион на ладони (Сергей Ткачев) [2013, Мелодрама, детектив, HDTVRip]

    Ответить на тему
     
    Автор Сообщение

    rechyn

    Создавать темы 08-Дек-2015 23:12

           

    [Цитировать]

    Скорпион на ладони
    Жанр: Мелодрама, детектив
    Год выпуска: 2013
    Продолжительность: 01:13:22
    Режиссёр: Сергей Ткачев
    В ролях: Сергей Ткачев, Наталия Ткачева (II), Ольга Сутулова, Мария Шалаева, Владислав Сыч, Геннадий Карпенко, Никита Ткачев, Сергей Щепачев, Елена Карпенко, Вероника Ткачева, Серафим Сыч
    Описание: Журналист Саша Таранов пытается пережить смерть любимой жены, прибегая к рекомендациям маститого психотерапевта. Желая заглушить боль утраты, он совершает экстравагантные поступки, граничащие с откровенным безумием. Забросив свою работу и привычный образ жизни, он проводит дни напролет в шатаниях по городу. На своем пути он встречает трех женщин — ЛИКУ, ОЛЬГУ и АННУ, каждая из которых может стать его спасительным лекарством и нитью, выводящей к свету. Но вначале ему предстоит разгадать тайну внезапного исчезновения одной из них…
    Сэмпл: https://yadi.sk/i/zGmz9xSgd93UY
    Доп. информация: За предоставленный рип благодарим Ledy_X
    "Спасибы" просьба ПИСАТЬ в теме, тем самым вы продлеваете жизнь раздаче.
    Релиз
    Качество видео: HDTVRip [Исходник 1080i]
    Формат видео: AVI
    Видео: 720x400 (1.80:1), 25 fps, XviD build 50 ~1899 kbps avg, 0.26 bit/pixel
    Аудио: 48 kHz, AC3 Dolby Digital, 2/0 (L,R) ch, ~192 kbps

    MediaInfo

    Скорпион на ладони-2013.avi
    Format : AVI
    Format/Info : Audio Video Interleave
    File size : 1.08 GiB
    Duration : 1h 13mn
    Overall bit rate : 2 102 Kbps
    Movie name : Скорпион на ладони-2013
    Director : Rip by Ledy_X
    Writing application : VirtualDubMod 1.5.10.3 | www.virtualdub-fr.org || (build 2550/release)
    Copyright : Edich2
    Comment : RuTracker.org
    Video
    ID : 0
    Format : MPEG-4 Visual
    Format profile : Advanced Simple@L5
    Format settings, BVOP : 2
    Format settings, QPel : No
    Format settings, GMC : No warppoints
    Format settings, Matrix : Custom
    Codec ID : XVID
    Codec ID/Hint : XviD
    Duration : 1h 13mn
    Bit rate : 1 900 Kbps
    Width : 720 pixels
    Height : 400 pixels
    Display aspect ratio : 16:9
    Frame rate : 25.000 fps
    Color space : YUV
    Chroma subsampling : 4:2:0
    Bit depth : 8 bits
    Scan type : Progressive
    Compression mode : Lossy
    Bits/(Pixel*Frame) : 0.264
    Stream size : 997 MiB (90%)
    Writing library : XviD 1.2.1 (UTC 2008-12-04)
    Audio
    ID : 1
    Format : AC-3
    Format/Info : Audio Coding 3
    Mode extension : CM (complete main)
    Format settings, Endianness : Big
    Codec ID : 2000
    Duration : 1h 13mn
    Bit rate mode : Constant
    Bit rate : 192 Kbps
    Channel(s) : 2 channels
    Channel positions : Front: L R
    Sampling rate : 48.0 KHz
    Bit depth : 16 bits
    Compression mode : Lossy
    Stream size : 101 MiB (9%)
    Alignment : Split accross interleaves
    Interleave, duration : 40 ms (1.00 video frame)
    Interleave, preload duration : 500 ms

    Скриншоты


    Скачать .torrent

    Скачать торрент-файл бесплатно и на максимальной скорости!

    Как скачивать? · Что такое торрент? · Рейтинг и ограничения

    !ВНИМАНИЕ!
    Сайт не распространяет и не хранит электронные версии произведений, а занимается лишь лишь предоставлением доступа к создаваемому пользователями каталогу ссылок на торрент-файлы, которые содержат только списки хеш-сумм, убедительная просьба с жалобами обращаться напрямую к пользователю. Файлы для обмена на трекере предоставлены пользователями сайта, и администрация не несёт ответственности за их содержание. Просьба не заливать файлы, защищенные авторскими правами, а также файлы нелегального содержания!


    _________________
    [Профиль] [ЛС]
    Показать сообщения:    
    Ответить на тему

    Текущее время: Сегодня, в 14:54

    Часовой пояс: GMT + 2



    Вы не можете начинать темы
    Вы не можете отвечать на сообщения
    Вы не можете редактировать свои сообщения
    Вы не можете удалять свои сообщения
    Вы не можете голосовать в опросах
    Вы не можете прикреплять файлы к сообщениям
    Вы не можете скачивать файлы