BitTorrentTracker PerecTracker.org
BitTorrentTracker PerecTracker.org
    
Регистрация  ·  Вход
 
 · 
Забыли пароль?

  • Параграф 78 (Михаил Хлебородов) [2007, фантастика, боевик, триллер, DVDRip]

    Ответить на тему
     
    Автор Сообщение

    rechyn

    Создавать темы 08-Дек-2015 23:12

           

    [Цитировать]

    Параграф 78: Фильм первый + Фильм второй

    «Жребий брошен...»

    Страна: Россия
    Жанр: фантастика, боевик, триллер
    Год выпуска: 2007
    Продолжительность: 1:27:42 + 1:29:53
    Режиссёр: Михаил Хлебородов
    Сценарий: Иван Охлобыстин
    В ролях: Гоша Куценко, Владимир Вдовиченков, Григорий Сиятвинда, Анастасия Сланевская(Слава), Станислав Дужников, Азиз Бейшеналиев, Анатолий Белый, Юсуп Бахшиев, Михаил Ефремов, Александр Тютин
    Описание: В недалеком будущем команда специального назначения получает новое важное задание, которое становится для давно уже отошедших от дел спецназовцев единственной возможностью снова увидеть бывших соратников по опасным миссиям. Тем более, что очень важные вопросы их личных взаимоотношений так и остались до конца не решенными.
    Они так и не приучились называть друг друга по именам, им куда ближе прижившиеся когда-то на службе оперативные псевдонимы, но время и опыт меняют даже тех суперпрофессионалов, что всю жизнь привыкли подчиняться незыблемому и непререкаемому Параграфу. И на сверхсекретной ракетной базе, куда приводит команду высочайший приказ, им придется лицом к лицу столкнуться не только с внешней опасностью, но и друг с другом…
    Доп. информация: В фильме присутствует ненормативная лексика Возраст: 16+ (зрителям достигшим 16 лет)

    Качество видео: DVDRip
    Формат видео: AVI
    Видео: DX50, 720 x 304 (2.35:1), 25.000 fps, ~1 047 Kbps
    Аудио: MP3, 48.0 KHz, 128 Kbps, 2 ch

    MediaInfo

    Полное имя : D:\TORRENT\Параграф 78\Paragraf.78.I.2007.DVDRip_[nikshutnik].avi
    Формат : AVI
    Формат/Информация : Audio Video Interleave
    Размер файла : 743 MiB
    Продолжительность : 1h 27mn
    Общий поток : 1 185 Kbps
    Программа кодирования : VirtualDubMod 1.5.10.3 | www.virtualdub-fr.org || (build 2550/release)
    Библиотека кодирования : VirtualDubMod build 2550/release
    Video
    Идентификатор : 0
    Формат : MPEG-4 Visual
    Профиль формата : Advanced Simple@L5
    Параметр BVOP формата : 2
    Параметр QPel формата : No
    Параметр GMC формата : No warppoints
    Параметр матрицы формата : Default (MPEG)
    Идентификатор кодека : DX50
    Идентификатор кодека/Подсказка : DivX 5
    Продолжительность : 1h 27mn
    Битрейт : 1 047 Kbps
    Ширина : 720 pixels
    Высота : 304 pixels
    Соотношение сторон : 2.35:1
    Частота кадров : 25.000 fps
    Цветовое пространство : YUV
    Субдискретизация насыщенности : 4:2:0
    Битовая глубина : 8 bits
    Тип развёртки : Progressive
    Метод сжатия : Lossy
    Бит/(Пиксели*Кадры) : 0.191
    Размер потока : 657 MiB (88%)
    Библиотека кодирования : XviD 1.2.1 (UTC 2008-12-04)
    Audio
    Идентификатор : 1
    Формат : MPEG Audio
    Версия формата : Version 1
    Профиль формата : Layer 3
    Идентификатор кодека : 55
    Идентификатор кодека/Подсказка : MP3
    Продолжительность : 1h 27mn
    Вид битрейта : Constant
    Битрейт : 128 Kbps
    Каналы : 2 channels
    Частота : 48.0 KHz
    Метод сжатия : Lossy
    Размер потока : 80.3 MiB (11%)
    Выравнивание : Aligned on interleaves
    Продолжительность промежутка : 40 ms (1.00 video frame)
    Время предзагрузки промежутка : 504 ms
    Библиотека кодирования : LAME3.99r
    Настройки программы : -m s -V 4 -q 2 -lowpass 17 -b 128
    ---
    Полное имя : D:\TORRENT\Параграф 78\Paragraf.78.II.2007.DVDRip_[nikshutnik].avi
    Формат : AVI
    Формат/Информация : Audio Video Interleave
    Размер файла : 744 MiB
    Продолжительность : 1h 29mn
    Общий поток : 1 157 Kbps
    Программа кодирования : VirtualDubMod 1.5.10.3 | www.virtualdub-fr.org || (build 2550/release)
    Библиотека кодирования : VirtualDubMod build 2550/release
    Video
    Идентификатор : 0
    Формат : MPEG-4 Visual
    Профиль формата : Advanced Simple@L5
    Параметр BVOP формата : 2
    Параметр QPel формата : No
    Параметр GMC формата : No warppoints
    Параметр матрицы формата : Default (MPEG)
    Идентификатор кодека : DX50
    Идентификатор кодека/Подсказка : DivX 5
    Продолжительность : 1h 29mn
    Битрейт : 1 019 Kbps
    Ширина : 720 pixels
    Высота : 304 pixels
    Соотношение сторон : 2.35:1
    Частота кадров : 25.000 fps
    Цветовое пространство : YUV
    Субдискретизация насыщенности : 4:2:0
    Битовая глубина : 8 bits
    Тип развёртки : Progressive
    Метод сжатия : Lossy
    Бит/(Пиксели*Кадры) : 0.186
    Размер потока : 655 MiB (88%)
    Библиотека кодирования : XviD 1.2.1 (UTC 2008-12-04)
    Audio
    Идентификатор : 1
    Формат : MPEG Audio
    Версия формата : Version 1
    Профиль формата : Layer 3
    Идентификатор кодека : 55
    Идентификатор кодека/Подсказка : MP3
    Продолжительность : 1h 29mn
    Вид битрейта : Constant
    Битрейт : 128 Kbps
    Каналы : 2 channels
    Частота : 48.0 KHz
    Метод сжатия : Lossy
    Размер потока : 82.3 MiB (11%)
    Выравнивание : Aligned on interleaves
    Продолжительность промежутка : 40 ms (1.00 video frame)
    Время предзагрузки промежутка : 504 ms
    Библиотека кодирования : LAME3.99r
    Настройки программы : -m s -V 4 -q 2 -lowpass 17 -b 128

    Скриншот c названием фильма

    Скриншоты

    Скачать .torrent

    Скачать торрент-файл бесплатно и на максимальной скорости!

    Как скачивать? · Что такое торрент? · Рейтинг и ограничения

    !ВНИМАНИЕ!
    Сайт не распространяет и не хранит электронные версии произведений, а занимается лишь лишь предоставлением доступа к создаваемому пользователями каталогу ссылок на торрент-файлы, которые содержат только списки хеш-сумм, убедительная просьба с жалобами обращаться напрямую к пользователю. Файлы для обмена на трекере предоставлены пользователями сайта, и администрация не несёт ответственности за их содержание. Просьба не заливать файлы, защищенные авторскими правами, а также файлы нелегального содержания!


    _________________
    [Профиль] [ЛС]
    Показать сообщения:    
    Ответить на тему

    Текущее время: Сегодня, в 18:31

    Часовой пояс: GMT + 2



    Вы не можете начинать темы
    Вы не можете отвечать на сообщения
    Вы не можете редактировать свои сообщения
    Вы не можете удалять свои сообщения
    Вы не можете голосовать в опросах
    Вы не можете прикреплять файлы к сообщениям
    Вы не можете скачивать файлы