Register  ·  Log in
Forgot password?

  • Я тоже хочу (Алексей Балабанов) [2012, драма, притча, HDRip]

    Reply to topic
    Author Message


    Post 09-Dec-2015 00:11



    Я тоже хочу-Жанр: драма, притча
    Год выпуска: 2012
    Продолжительность: 01:19:52-Режиссёр: Алексей Балабанов-В ролях: Александр Мосин, Олег Гаркуша, Юрий Матвеев, Алиса Шитикова, Алексей Балабанов, Петр Балабанов, Виктор Горбунов, Авдотья Смирнова, Сергей Шолохов, Сергей Кульчицкий...-Описание: По пустынной летней дороге мчится огромный черный джип. В нем — Бандит, его друг Матвей со стариком-отцом, Музыкант и красивая девушка. Они ищут Колокольню Счастья, которая по слухам находится где-то между Питером и Угличем, рядом с уже давно неработающей атомной станцией. Колокольня забирает людей. Но не всех. Но в темной большой машине каждый верит, что выберут его.--Качество видео: HDRip
    Формат видео: AVI-Видео: 720*400 (1.80:1), 25 fps, XviD build 50 ~2142 kbps avg, 0.30 bit/pixel
    Аудио: 48 kHz, AC3 Dolby Digital, 3/2 (L,C,R,l,r) + LFE ch, ~448.00 kbps avg


    Complete name : D:\Ya_toje_hochu_HDRip__2012.avi
    Format : AVI
    Format/Info : Audio Video Interleave
    File size : 1.45 GiB
    Duration : 1h 19mn
    Overall bit rate : 2 600 Kbps
    Writing application : VirtualDubMod (build 2540/release)
    Writing library : VirtualDubMod build 2540/release
    ID : 0
    Format : MPEG-4 Visual
    Format profile : Advanced Simple@L5
    Format settings, BVOP : 1
    Format settings, QPel : No
    Format settings, GMC : No warppoints
    Format settings, Matrix : Custom
    Codec ID : XVID
    Codec ID/Hint : XviD
    Duration : 1h 19mn
    Bit rate : 2 143 Kbps
    Width : 720 pixels
    Height : 400 pixels
    Display aspect ratio : 16:9
    Frame rate : 25.000 fps
    Color space : YUV
    Chroma subsampling : 4:2:0
    Bit depth : 8 bits
    Scan type : Progressive
    Compression mode : Lossy
    Bits/(Pixel*Frame) : 0.298
    Stream size : 1.20 GiB (82%)
    Writing library : XviD 1.2.1 (UTC 2008-12-04)
    ID : 1
    Format : AC-3
    Format/Info : Audio Coding 3
    Mode extension : CM (complete main)
    Format settings, Endianness : Big
    Codec ID : 2000
    Duration : 1h 19mn
    Bit rate mode : Constant
    Bit rate : 448 Kbps
    Channel(s) : 6 channels
    Channel positions : Front: L C R, Side: L R, LFE
    Sampling rate : 48.0 KHz
    Bit depth : 16 bits
    Compression mode : Lossy
    Stream size : 256 MiB (17%)
    Alignment : Split accross interleaves
    Interleave, duration : 40 ms (1.00 video frame)
    Interleave, preload duration : 500 ms

    Скриншот c названием фильма


    Download .torrent

    Download free and at maximum speed!

    How to Download? · What is a torrent? · Ratings and Limitations

    The site does not extend and does not store electronic(digital) versions of products, and only gives access to a reference catalogue created by users on torrent-files which contain only lists of the hash-sums, the earnest entreaty, with complaints(abuse) to access directly to the user. Files for an exchange on tracker are given by users of a site, and the administration does not bear the responsibility for their maintenance. The request to not fill in the files protected by copyrights, and also files of the illegal maintenance!

    [Profile] [PM]
    Display posts from previous:    
    Reply to topic

    The time now is: Today 11:37

    All times are GMT + 3 Hours

    You cannot post new topics in this forum
    You cannot reply to topics in this forum
    You cannot edit your posts in this forum
    You cannot delete your posts in this forum
    You cannot vote in polls in this forum
    You cannot attach files in this forum
    You cannot download files in this forum