BitTorrentTracker PerecTracker.org
BitTorrentTracker PerecTracker.org
    
Регистрация  ·  Вход
 
 · 
Забыли пароль?

  • Авантюристы (Константин Буслов) [2014, Приключения, DVDRip]

    Ответить на тему
     
    Автор Сообщение

    rechyn

    Создавать темы 08-Дек-2015 23:11

           

    [Цитировать]

    Авантюристы--Жанр: Приключения
    Год выпуска: 2014
    Продолжительность: 01:31:00
    Режиссёр: Константин Буслов--В главных ролях: Константин Хабенский, Светлана Ходченкова, Денис Шведов
    Описание: Катя и Андрей, успешный молодой банковский клерк, прилетают на Мальту на отдых. В дайвинг-центре они случайно встречают Макса — профессионального дайвера, тайком занимающегося черной археологией, и, по совместительству, бывшего возлюбленного Кати.
    Во время одного из погружений Катя находит фрагмент спасательного жилета с номером немецкой подлодки времен Второй мировой. Девушка выясняет, что в 1942 году у мальтийского ордена рыцарей-госпитальеров была похищена коллекция уникальных древнеегипетских реликвий, которая должна была быть доставлена в Германию именно на подлодке. Однако ценный груз туда в итоге не прибыл.
    Рассудив, что подводная лодка с сокровищами, скорее всего, лежит на дне у берегов Мальты, троица начинает ее поиски, ввязываясь в череду опасных авантюр, в том числе и подводных. А отношения между искателями приключений все больше напоминают любовный треугольник…
    --Сэмпл: http://sendfile.su/1061948
    Качество видео: DVDRip
    Формат видео: AVI
    Видео: 656x368 (16:9), 25.00 fps, ~1006 kbps avg, 0.17 bit/pixel
    Аудио: 48.00 kHz, MPEG Layer 3, 2 ch, ~128.00 kbps avg

    MediaInfo

    General
    Format : AVI
    Format/Info : Audio Video Interleave
    File size : 745 MiB
    Duration : 1h 31mn
    Overall bit rate : 1 144 Kbps
    Writing application : VirtualDubMod 1.5.10.3 | www.virtualdub-fr.org || (build 2550/release)
    Writing library : VirtualDubMod build 2550/release
    Video
    ID : 0
    Format : MPEG-4 Visual
    Format profile : Advanced Simple@L5
    Format settings, BVOP : 1
    Format settings, QPel : No
    Format settings, GMC : No warppoints
    Format settings, Matrix : Default (H.263)
    Codec ID : XVID
    Codec ID/Hint : XviD
    Duration : 1h 31mn
    Bit rate : 1 006 Kbps
    Width : 656 pixels
    Height : 368 pixels
    Display aspect ratio : 16:9
    Frame rate : 25.000 fps
    Color space : YUV
    Chroma subsampling : 4:2:0
    Bit depth : 8 bits
    Scan type : Progressive
    Compression mode : Lossy
    Bits/(Pixel*Frame) : 0.167
    Stream size : 655 MiB (88%)
    Writing library : XviD 73
    Audio
    ID : 1
    Format : MPEG Audio
    Format version : Version 1
    Format profile : Layer 3
    Codec ID : 55
    Codec ID/Hint : MP3
    Duration : 1h 31mn
    Bit rate mode : Constant
    Bit rate : 128 Kbps
    Channel(s) : 2 channels
    Sampling rate : 48.0 KHz
    Compression mode : Lossy
    Delay relative to video : 1s 776ms
    Stream size : 83.3 MiB (11%)
    Alignment : Split accross interleaves
    Interleave, duration : 40 ms (1.00 video frame)
    Interleave, preload duratio : 504 ms
    Writing library : LAME3.99r
    Encoding settings : -m s -V 4 -q 2 -lowpass 17 -b 128

    Скриншот c названием фильма

    Скриншоты

    Скачать .torrent

    Скачать торрент-файл бесплатно и на максимальной скорости!

    Как скачивать? · Что такое торрент? · Рейтинг и ограничения

    !ВНИМАНИЕ!
    Сайт не распространяет и не хранит электронные версии произведений, а занимается лишь лишь предоставлением доступа к создаваемому пользователями каталогу ссылок на торрент-файлы, которые содержат только списки хеш-сумм, убедительная просьба с жалобами обращаться напрямую к пользователю. Файлы для обмена на трекере предоставлены пользователями сайта, и администрация не несёт ответственности за их содержание. Просьба не заливать файлы, защищенные авторскими правами, а также файлы нелегального содержания!


    _________________
    [Профиль] [ЛС]
    Показать сообщения:    
    Ответить на тему

    Текущее время: Сегодня, в 12:37

    Часовой пояс: GMT + 2



    Вы не можете начинать темы
    Вы не можете отвечать на сообщения
    Вы не можете редактировать свои сообщения
    Вы не можете удалять свои сообщения
    Вы не можете голосовать в опросах
    Вы не можете прикреплять файлы к сообщениям
    Вы не можете скачивать файлы