BitTorrentTracker PerecTracker.org
BitTorrentTracker PerecTracker.org
    
Регистрация  ·  Вход
 
 · 
Забыли пароль?

  • Военный корреспондент (Павел Игнатов) [2014, Боевик, DVB]

    Ответить на тему
     
    Автор Сообщение

    rechyn

    Создавать темы 08-Дек-2015 23:11

           

    [Цитировать]

    Военный корреспондент
    Год выпуска: 2014
    Производство: Россия
    Жанр: Боевик
    Продолжительность: 01:37:26
    Режиссёр: Павел Игнатов
    В ролях: Вольфганг Черни, Ольга Виниченко, Али Алиев, Антон Ерёмин, Ян Цапник, Максим Щёголев
    Описание: Американский репортер Мэт Маккью привык доверять только фактам. За его плечами - Афганистан, Ливия, Ирак... и высочайшие телевизионные награды в области журналистики. После того как в далекой и непонятной для большинства американцев Украине произошла очередная смена власти, Мэт по заданию информационного канала отправляется туда... Американский журналист оказывается на востоке Украины. Он всего лишь пытается рассказать правду об этой войне, но Вашингтон обвиняет его в предательстве, а в Киеве объявляют шпионом.
    Раздача группы:
    Сэмпл
    Качество: DVB-T2
    Формат: TS
    Видео кодек: AVC
    Аудио кодек: MP2
    Видео: AVC, 720х576@1024х576 (16:9), 2671 Kbps, 25 fps, Bits/(Pixel*Frame) : 0.254
    Аудио: MP2, 192 Kbps, 48.0 KHz, 2 ch

    MI

    D:\видео\Военный корреспондент.ts
    General #1
    ID : 1 (0x1)
    Complete name : D:\видео\Военный корреспондент.ts
    Format : MPEG-TS
    File size : 2.05 GiB
    Duration : 1h 37mn
    Overall bit rate : 3 015 Kbps
    Video #1041
    ID : 1041 (0x411)
    Menu ID : 1 (0x1)
    Format : AVC
    Format/Info : Advanced Video Codec
    Format profile : Main@L3.0
    Format settings, CABAC : Yes
    Format settings, ReFrames : 3 frames
    Format settings, GOP : M=4, N=28
    Codec ID : 27
    Duration : 1h 37mn
    Bit rate : 2 672 Kbps
    Width : 720 pixels
    Height : 576 pixels
    Display aspect ratio : 16:9
    Frame rate : 25.000 fps
    Standard : Component
    Color space : YUV
    Chroma subsampling : 4:2:0
    Bit depth : 8 bits
    Scan type : Interlaced
    Scan order : Top Field First
    Bits/(Pixel*Frame) : 0.258
    Stream size : 1.82 GiB (89%)
    Color primaries : BT.470-6 System B, BT.470-6 System G, BT.601-6 625, BT.1358 625, BT.1700 625 PAL, BT.1700 625 SECAM
    Transfer characteristics : BT.470-6 System B, BT.470-6 System G
    Matrix coefficients : BT.470-6 System B, BT.470-6 System G, BT.601-6 625, BT.1358 625, BT.1700 625 PAL, BT.1700 625 SECAM, IEC 61966-2-4 601
    Audio #1042
    ID : 1042 (0x412)
    Menu ID : 1 (0x1)
    Format : MPEG Audio
    Format version : Version 1
    Format profile : Layer 2
    Codec ID : 3
    Duration : 1h 37mn
    Bit rate mode : Constant
    Bit rate : 192 Kbps
    Channel(s) : 2 channels
    Sampling rate : 48.0 KHz
    Compression mode : Lossy
    Stream size : 134 MiB (6%)
    Language : English
    Text #1044-100
    ID : 1044 (0x414)-100
    Menu ID : 1 (0x1)
    Format : Teletext
    Language : Russian

    Скриншоты

    Скачать .torrent

    Скачать торрент-файл бесплатно и на максимальной скорости!

    Как скачивать? · Что такое торрент? · Рейтинг и ограничения

    !ВНИМАНИЕ!
    Сайт не распространяет и не хранит электронные версии произведений, а занимается лишь лишь предоставлением доступа к создаваемому пользователями каталогу ссылок на торрент-файлы, которые содержат только списки хеш-сумм, убедительная просьба с жалобами обращаться напрямую к пользователю. Файлы для обмена на трекере предоставлены пользователями сайта, и администрация не несёт ответственности за их содержание. Просьба не заливать файлы, защищенные авторскими правами, а также файлы нелегального содержания!


    _________________
    [Профиль] [ЛС]
    Показать сообщения:    
    Ответить на тему

    Текущее время: Сегодня, в 02:31

    Часовой пояс: GMT + 2



    Вы не можете начинать темы
    Вы не можете отвечать на сообщения
    Вы не можете редактировать свои сообщения
    Вы не можете удалять свои сообщения
    Вы не можете голосовать в опросах
    Вы не можете прикреплять файлы к сообщениям
    Вы не можете скачивать файлы