Register  ·  Log in
Forgot password?

  • До свидания мама (Светлана Проскурина) [2014, Россия, драма, DVDRip]

    Reply to topic
    Author Message


    Post 09-Dec-2015 00:11



    До свидания мама«Каждая счастливая семья несчастна по-своему»Год выпуска: 2014
    Жанр: драма
    Продолжительность: 01:38:19
    Cубтитры: отсутствуют-Страна: Россия / Мосфильм, Кинокомпания «Слон»
    Режиссер: Светлана Проскурина
    В ролях: Даумантас Цюнис, Александра Ребенок, Алексей Вертков, Диана Ганцевскайте, Мария Леонова, Яна Терешина
    Описание: Алексей и Анна молодые супруги. Неожиданная встреча Анны с другим мужчиной переворачивает их семейный мир. Любимые становятся чужими, случайный попутчик самым дорогим человеком, а собственный ребенок неудобным препятствием на пути к счастью.

    Качество: DVDRip / DVD5 R5 от Кинообъединения «Крупный план»
    Формат: AVI
    Видео: 720x400 (16:9), 25.000 fps, XViD, ~1663 kbps avg, 0.231 bit/pix
    Аудио: 48 kHz, AC3, 6 ch, 448 kbps, русский


    Format : AVI
    Format/Info : Audio Video Interleave
    File size : 1.46 GiB
    Duration : 1h 38mn
    Overall bit rate : 2 121 Kbps
    Writing application : VirtualDubMod | || (build 2550/release)
    Writing library : VirtualDubMod build 2550/release
    ID : 0
    Format : MPEG-4 Visual
    Format profile : Advanced Simple@L5
    Format settings, BVOP : 1
    Format settings, QPel : No
    Format settings, GMC : No warppoints
    Format settings, Matrix : Custom
    Codec ID : XVID
    Codec ID/Hint : XviD
    Duration : 1h 38mn
    Bit rate : 1 663 Kbps
    Width : 720 pixels
    Height : 400 pixels
    Display aspect ratio : 16:9
    Frame rate : 25.000 fps
    Color space : YUV
    Chroma subsampling : 4:2:0
    Bit depth : 8 bits
    Scan type : Progressive
    Compression mode : Lossy
    Bits/(Pixel*Frame) : 0.231
    Stream size : 1.14 GiB (78%)
    Writing library : XviD 73
    ID : 1
    Format : AC-3
    Format/Info : Audio Coding 3
    Mode extension : CM (complete main)
    Format settings, Endianness : Big
    Codec ID : 2000
    Duration : 1h 38mn
    Bit rate mode : Constant
    Bit rate : 448 Kbps
    Channel(s) : 6 channels
    Channel positions : Front: L C R, Side: L R, LFE
    Sampling rate : 48.0 KHz
    Bit depth : 16 bits
    Compression mode : Lossy
    Stream size : 315 MiB (21%)
    Alignment : Split accross interleaves
    Interleave, duration : 40 ms (1.00 video frame)
    Interleave, preload duration : 500 ms


    Download .torrent

    Download free and at maximum speed!

    How to Download? · What is a torrent? · Ratings and Limitations

    The site does not extend and does not store electronic(digital) versions of products, and only gives access to a reference catalogue created by users on torrent-files which contain only lists of the hash-sums, the earnest entreaty, with complaints(abuse) to access directly to the user. Files for an exchange on tracker are given by users of a site, and the administration does not bear the responsibility for their maintenance. The request to not fill in the files protected by copyrights, and also files of the illegal maintenance!

    [Profile] [PM]
    Display posts from previous:    
    Reply to topic

    The time now is: Today 11:28

    All times are GMT + 3 Hours

    You cannot post new topics in this forum
    You cannot reply to topics in this forum
    You cannot edit your posts in this forum
    You cannot delete your posts in this forum
    You cannot vote in polls in this forum
    You cannot attach files in this forum
    You cannot download files in this forum