Register  ·  Log in
Forgot password?

  • От праздника к празднику (Алексей Карелин) [2014, Мелодрама, драма, HDTVRip]

    Reply to topic
    Author Message


    Post 09-Dec-2015 00:11



    От праздника к празднику
    Жанр: Мелодрама, драма, детектив
    Год выпуска: 2014
    Продолжительность: 01:30:45
    Режиссёр: Алексей Карелин
    В ролях: Евгения Осипова, Алексей Янин, Наталья Лесниковская, Андрей Сенькин, Святослав Астрамович, Лариса Маршалова, Марк Нестер, Александр Павлов, Виктор Молчан, Валентина Харитонова, Сергей Зыгмантович, Олег Ткачёв, Алла Волынец, Алиса Петрова, Иван Павлов, Анжелика Метте
    Описание: Лёля мечтает о красивой и богатой жизни. Перед её глазами постоянный пример её подруги Шуши, удачно вышедшей замуж за бизнесмена Васю. Однако обстоятельства складываются так, что Лёля принимает ответственность за маму, за брата, за невестку, за племянника. И неожиданно для себя она понимает, что настоящее богатство - это любовь...
    Качество видео: HDTVRip [Исходник: HDTV (1080i)]
    Формат видео: AVI
    Видео: XviD, 656x368 (16:9), 25 кадр/с, 1011 Кбит/с
    Аудио: Русский, MP3, 48000 Гц, 128 Кбит/с, 2 канала (Стерео)

    Автор рипа - ivandubskoj


    Complete name : Ot.prazdnika.k.prazdniku.2014.HDTVRip.745MB.avi
    Format : AVI
    Format/Info : Audio Video Interleave
    File size : 746 MiB
    Duration : 1h 30mn
    Overall bit rate : 1 149 Kbps
    Writing application : VirtualDubMod (build 2550/release)
    Writing library : VirtualDubMod build 2550/release
    Copyright : rip by ivandubskoj
    ID : 0
    Format : MPEG-4 Visual
    Format profile : Advanced Simple@L5
    Format settings, BVOP : 2
    Format settings, QPel : No
    Format settings, GMC : No warppoints
    Format settings, Matrix : Custom
    Codec ID : XVID
    Codec ID/Hint : XviD
    Duration : 1h 30mn
    Bit rate : 1 011 Kbps
    Width : 656 pixels
    Height : 368 pixels
    Display aspect ratio : 16:9
    Frame rate : 25.000 fps
    Color space : YUV
    Chroma subsampling : 4:2:0
    Bit depth : 8 bits
    Scan type : Progressive
    Compression mode : Lossy
    Bits/(Pixel*Frame) : 0.167
    Stream size : 656 MiB (88%)
    Writing library : XviD 73
    ID : 1
    Format : MPEG Audio
    Format version : Version 1
    Format profile : Layer 3
    Codec ID : 55
    Codec ID/Hint : MP3
    Duration : 1h 30mn
    Bit rate mode : Constant
    Bit rate : 128 Kbps
    Channel(s) : 2 channels
    Sampling rate : 48.0 KHz
    Compression mode : Lossy
    Stream size : 83.1 MiB (11%)
    Alignment : Aligned on interleaves
    Interleave, duration : 40 ms (1.00 video frame)
    Interleave, preload duration : 504 ms
    Writing library : LAME3.99r
    Encoding settings : -m s -V 4 -q 0 -lowpass 17 -b 128

    Скриншот c названием фильма


    Download .torrent

    Download free and at maximum speed!

    How to Download? · What is a torrent? · Ratings and Limitations

    The site does not extend and does not store electronic(digital) versions of products, and only gives access to a reference catalogue created by users on torrent-files which contain only lists of the hash-sums, the earnest entreaty, with complaints(abuse) to access directly to the user. Files for an exchange on tracker are given by users of a site, and the administration does not bear the responsibility for their maintenance. The request to not fill in the files protected by copyrights, and also files of the illegal maintenance!

    [Profile] [PM]
    Display posts from previous:    
    Reply to topic

    The time now is: Today 19:20

    All times are GMT + 3 Hours

    You cannot post new topics in this forum
    You cannot reply to topics in this forum
    You cannot edit your posts in this forum
    You cannot delete your posts in this forum
    You cannot vote in polls in this forum
    You cannot attach files in this forum
    You cannot download files in this forum