BitTorrentTracker PerecTracker.org
BitTorrentTracker PerecTracker.org
    
Регистрация  ·  Вход
 
 · 
Забыли пароль?

  • Стиляги (Валерий Тодоровский / Valeri Todorovsky) [2008, комедия, драма, мюзикл, HDRip]

    Ответить на тему
     
    Автор Сообщение

    rechyn

    Создавать темы 08-Дек-2015 23:11

           

    [Цитировать]

    Стиляги
    Жанр: комедия, драма, мюзикл
    Год выпуска: 2008
    Продолжительность: 02:16:34
    Режиссёр: Валерий Тодоровский / Valeri Todorovsky
    В ролях: Оксана Акиньшина, Антон Шагин, Сергей Гармаш, Алексей Горбунов, Евгения Хиривская, София Лебедева, Максим Матвеев, Мария Мина, Олег Пангсепп, Максим Пешков, Ирина Розанова, Михаил Сиворин, Александра Стрельчина, Евгения Суворкина, Екатерина Вилкова, Эльвира Волошина, Игорь Войнаровский, Олег Янковский, Леонид Ярмольник, Алеся Пуховая, Сергей Ларин, Александр Стефанцов, Людмила Соловьева
    Описание: В Москве 1955-56 годов общество переживало совершенно особый период. Сталина уже не было в живых, но XX съезда и разоблачения его культа личности еще не произошло. Некоторые молодые люди, мечтавшие о яркой жизни, не похожей на серые будни СССР, стали так называемыми «стилягами» – поклонниками далекого запада, слушающими рок-н-ролл и джаз, любящими яркую одежду и модные за рубежом танцы.
    Разумеется, это далеко не всем было по душе: не только старшее поколение, но и образцовая советская молодежь возмущенно взирала на собиравшихся на улице Горького стиляг, а некоторые даже устраивали на них облаву. Одним из них был и комсомолец Мэлс, которого во время очередного «рейда» на стиляг угораздило с первого взгляда влюбиться в симпатичную Полину – «Пользу» для своих. Она позвала его на стиляжий «Бродвей», улицу Горького, где собирались стиляги, и Мэлс понемногу стал проникаться их свободолюбивым духом и даже стал одним из них. Но долго ли продлится такая жизнь?
    Сэмпл: http://multi-up.com/1021845
    Качество видео: HDRip
    Формат видео: AVI
    Видео: MPEG-4 Video (XVID), 640 x 360 (1.78:1), 24 fps, 0.16 bit/pixel
    Аудио: A52 Audio (aka AC3) (a52 ), 48 kHz, stereo, 192 Kbps

    MediaInfo

    Общее
    Полное имя : D:\Кино\Стиляги.avi
    Формат : AVI
    Формат/Информация : Audio Video Interleave
    Размер файла : 1,45 Гбайт
    Продолжительность : 2 ч. 16 м.
    Общий поток : 1519 Кбит/сек
    Программа кодирования : Nandub v2.01 The advanced compression technology is developed by Neiromaster
    Библиотека кодирования : Nandub 2.01 modified by Neiromaster
    Видео
    Идентификатор : 0
    Формат : MPEG-4 Visual
    Профиль формата : Simple@L0
    Параметр BVOP формата : Нет
    Параметр QPel формата : Нет
    Параметр GMC формата : Без точки перехода
    Параметр матрицы формата : Default (H.263)
    Идентификатор кодека : XVID
    Идентификатор кодека/Подсказка : XviD
    Продолжительность : 2 ч. 16 м.
    Битрейт : 1321 Кбит/сек
    Ширина : 640 пикселей
    Высота : 360 пикселей
    Соотношение сторон : 16:9
    Частота кадров : 23,976 кадра/сек
    Цветовое пространство : YUV
    Субдискретизация насыщенности : 4:2:0
    Битовая глубина : 8 бит
    Тип развёртки : Прогрессивная
    Метод сжатия : С потерями
    Бит/(Пиксели*Кадры) : 0.239
    Размер потока : 1,26 Гбайт (87%)
    Библиотека кодирования : XviD 1.2.0.dev47 (UTC 2006-11-01)
    Аудио
    Идентификатор : 1
    Формат : AC-3
    Формат/Информация : Audio Coding 3
    Расширение режима : CM (complete main)
    Параметр Endianness формата : Big
    Идентификатор кодека : 2000
    Продолжительность : 2 ч. 16 м.
    Вид битрейта : Постоянный
    Битрейт : 192 Кбит/сек
    Каналы : 2 канала
    Расположение каналов : Front: L R
    Частота : 48,0 КГц
    Битовая глубина : 16 бит
    Метод сжатия : С потерями
    Размер потока : 188 Мбайт (13%)
    Выравнивание : Разделение по промежуткам
    Продолжительность промежутка : 200 мс. (4,80 видеокадров)
    Время предзагрузки промежутка : 200 мс.

    Скриншот c названием фильма

    Скриншоты

    Скачать .torrent

    Скачать торрент-файл бесплатно и на максимальной скорости!

    Как скачивать? · Что такое торрент? · Рейтинг и ограничения

    !ВНИМАНИЕ!
    Сайт не распространяет и не хранит электронные версии произведений, а занимается лишь лишь предоставлением доступа к создаваемому пользователями каталогу ссылок на торрент-файлы, которые содержат только списки хеш-сумм, убедительная просьба с жалобами обращаться напрямую к пользователю. Файлы для обмена на трекере предоставлены пользователями сайта, и администрация не несёт ответственности за их содержание. Просьба не заливать файлы, защищенные авторскими правами, а также файлы нелегального содержания!


    _________________
    [Профиль] [ЛС]
    Показать сообщения:    
    Ответить на тему

    Текущее время: Сегодня, в 10:43

    Часовой пояс: GMT + 2



    Вы не можете начинать темы
    Вы не можете отвечать на сообщения
    Вы не можете редактировать свои сообщения
    Вы не можете удалять свои сообщения
    Вы не можете голосовать в опросах
    Вы не можете прикреплять файлы к сообщениям
    Вы не можете скачивать файлы