BitTorrentTracker PerecTracker.org
BitTorrentTracker PerecTracker.org
    
Регистрация  ·  Вход
 
 · 
Забыли пароль?

  • Ты меня любишь? (Юлия Курбатова) [2014, Мелодрама, комедия, DVB]

    Ответить на тему
     
    Автор Сообщение

    rechyn

    Создавать темы 08-Дек-2015 23:11

           

    [Цитировать]

    Ты меня любишь?
    Год выпуска: 2014
    Производство: Kurbatova production
    Жанр: Мелодрама, комедия
    Продолжительность: 01:19:51
    Субтитры: нет
    Режиссёр: Юлия Курбатова
    В ролях: Артём Михалков, Сергей Астахов, Юлия Курбатова, Надежда Грановская, Сергей Анашкин
    Описание: Он и она прошли почти все стадии отношений и уже почти развелись. Но вдруг в его сердце появилась любовь, которую он совсем не ждал, а в её жизнь вошёл настоящий мужчина, которого она, напротив, так ждала. Жизнь снова наполнилась смыслом, сердца наполнились любовью. Но что делать с предыдущими отношениями, в которых ещё не расставлены точки?..

    Качество: DVB
    Контейнер: MPEG -TS
    Видео: MPEG2 Video 768х576 @ 720x576 (4:3) 25.00fps ~4158 Kbps (0.401 bit/pixel)
    Аудио: MPEG Audio 48000Hz 2 channels 256 Кбит/сек
    Сторонней рекламы нет!

    MediaInfo

    ОбщееПолное имя : Z:\Ты меня любишь DVB_by_drakula05_&_Серый1779.mpgФормат : MPEG-PSРазмер файла : 2,49 ГбайтПродолжительность : 1 ч. 19 м.Режим общего битрейта : ПеременныйОбщий поток : 4504 Кбит/сек
    ВидеоИдентификатор : 224 (0xE0)Формат : MPEG VideoВерсия формата : Version 2Профиль формата : Main@MainПараметр BVOP формата : ДаПараметр матрицы формата : ВыборочнаяПараметр GOP формата : M=3, N=15Продолжительность : 1 ч. 19 м.Вид битрейта : ПеременныйБитрейт : 4158 Кбит/секМаксимальный битрейт : 7000 Кбит/секШирина : 720 пикселейВысота : 576 пикселейСоотношение сторон : 4:3Частота кадров : 25,000 кадров/секСтандарт вещания : PALЦветовое пространство : YUVСубдискретизация насыщенности : 4:2:0Битовая глубина : 8 битТип развёртки : ЧересстрочнаяПорядок развёртки : Верхнее поле первоеМетод сжатия : С потерямиБит/(Пиксели*Кадры) : 0.401Размер потока : 2,30 Гбайт (92%)
    АудиоИдентификатор : 192 (0xC0)Формат : MPEG AudioВерсия формата : Version 1Профиль формата : Layer 2Продолжительность : 1 ч. 19 м.Вид битрейта : ПостоянныйБитрейт : 256 Кбит/секКаналы : 2 каналаЧастота : 48,0 КГцМетод сжатия : С потерямиРазмер потока : 145 Мбайт (6%)
    Раздача группы:
    Отдельное спасибо за предоставление материала.

    Скриншот c названием фильма

    Скриншоты

    Скачать .torrent

    Скачать торрент-файл бесплатно и на максимальной скорости!

    Как скачивать? · Что такое торрент? · Рейтинг и ограничения

    !ВНИМАНИЕ!
    Сайт не распространяет и не хранит электронные версии произведений, а занимается лишь лишь предоставлением доступа к создаваемому пользователями каталогу ссылок на торрент-файлы, которые содержат только списки хеш-сумм, убедительная просьба с жалобами обращаться напрямую к пользователю. Файлы для обмена на трекере предоставлены пользователями сайта, и администрация не несёт ответственности за их содержание. Просьба не заливать файлы, защищенные авторскими правами, а также файлы нелегального содержания!


    _________________
    [Профиль] [ЛС]
    Показать сообщения:    
    Ответить на тему

    Текущее время: Сегодня, в 14:39

    Часовой пояс: GMT + 2



    Вы не можете начинать темы
    Вы не можете отвечать на сообщения
    Вы не можете редактировать свои сообщения
    Вы не можете удалять свои сообщения
    Вы не можете голосовать в опросах
    Вы не можете прикреплять файлы к сообщениям
    Вы не можете скачивать файлы