BitTorrentTracker PerecTracker.org
BitTorrentTracker PerecTracker.org
    
Регистрация  ·  Вход
 
 · 
Забыли пароль?

  • Русский характер (Александр Якимчук) [2014, Криминальная драма, DVB]

    Ответить на тему
     
    Автор Сообщение

    rechyn

    Создавать темы 08-Дек-2015 23:11

           

    [Цитировать]

    Русский характер
    Год выпуска: 2014
    Производство: "Триикс медиа" по заказу НТВ
    Жанр: Криминальная драма
    Продолжительность: ~01:27:15
    Субтитры: нет
    Режиссёр: Александр Якимчук
    В ролях: Александр Фисенко, Сергей Никоненко, Евгений Бакалов, Наталья Мартынова, Александра Никифорова, Любовь Завадская, Кирилл Полухин, Егор Баринов, Глеб Степан Каллистов, Витас Эйзенах
    Описание: 2013-й год. Украина. Военный моряк Максим Фадеев приезжает из Санкт-Петербурга в Крым, получив телеграмму о смерти деда. Здесь, в Крыму, прошло детство Максима. Отсюда он уехал поступать в Суворовское училище. Здесь живут его друзья и близкие...
    Максим узнает, что расположенный на берегу моря поселок терроризирует банда некоего Волощука, жестокого и беспринципного наемника, финансирует которого олигарх Юрий Гаджало. Олигарх хочет выжить из поселка местных жителей, снести его и построить на этом месте дорогой отель с ресторанами и причалом для катеров. Узнав об этом, Фадеев встает на защиту жителей поселка, что приводит к конфликту с местной милицией, которая закрывает глаза на бесчинства бандитов и даже покрывает их. Вскоре местные жители, которые были запуганы и не сопротивлялись бесчинствам, начинают помогать Фадееву в его борьбе с бандой.

    Качество: DVB
    Контейнер: TS
    Видео: AVC 1047х576 @ 720x576 (4:3) 25.00fps ~2318 Kbps (0.224 bit/pixel)
    Аудио: MPEG Audio 48000Hz 2 channels 192 Кбит/сек
    Сторонней рекламы нет!

    MediaInfo

    ОбщееИдентификатор : 1 (0x1)Полное имя : H:\Russkij.charakter.2014.DVB.Files-x.tsФормат : MPEG-TSРазмер файла : 1,62 ГбайтПродолжительность : 1 ч. 27 м.Общий поток : 2643 Кбит/сек
    ВидеоИдентификатор : 68 (0x44)Идентификатор меню : 1 (0x1)Формат : AVCФормат/Информация : Advanced Video CodecПрофиль формата : High@L3.0Параметр CABAC формата : ДаПараметр ReFrames формата : 4 кадраПараметры GOP формата : M=4, N=24Идентификатор кодека : 27Продолжительность : 1 ч. 27 м.Битрейт : 2318 Кбит/секШирина : 720 пикс.Высота : 576 пикс.Соотношение сторон : 16:9Частота кадров : 25,000 кадр/секСтандарт вещания : ComponentЦветовое пространство : YUVПодвыборка цветности : 4:2:0Битовая глубина : 8 битТип развёртки : ПрогрессивнаяБит/(Пиксели*Кадры) : 0.224Размер потока : 1,42 Гбайт (88%)Основные цвета : BT.470-6 System B, BT.470-6 System G, BT.601-6 625, BT.1358 625, BT.1700 625 PAL, BT.1700 625 SECAMХарактеристики трансфера : BT.470-6 System B, BT.470-6 System GКоэффициенты матрицы : BT.470-6 System B, BT.470-6 System G, BT.601-6 625, BT.1358 625, BT.1700 625 PAL, BT.1700 625 SECAM, IEC 61966-2-4 601
    АудиоИдентификатор : 69 (0x45)Идентификатор меню : 1 (0x1)Формат : MPEG AudioВерсия формата : Version 1Профиль формата : Layer 2Режим : Dual monoИдентификатор кодека : 3Продолжительность : 1 ч. 27 м.Вид битрейта : ПостоянныйБитрейт : 192 Кбит/секКаналы : 2 каналаЧастота : 48,0 КГцМетод сжатия : С потерямиЗадержка видео : -40 мс.Размер потока : 120 Мбайт (7%)Язык : Russian
    Запись:
    Оформление:
    Раздача группы:
    Отдельная громадная благодарность Media-Art-Club за созданный постер к раздаче.

    Скриншот c названием фильма

    Скриншоты

    Скачать .torrent

    Скачать торрент-файл бесплатно и на максимальной скорости!

    Как скачивать? · Что такое торрент? · Рейтинг и ограничения

    !ВНИМАНИЕ!
    Сайт не распространяет и не хранит электронные версии произведений, а занимается лишь лишь предоставлением доступа к создаваемому пользователями каталогу ссылок на торрент-файлы, которые содержат только списки хеш-сумм, убедительная просьба с жалобами обращаться напрямую к пользователю. Файлы для обмена на трекере предоставлены пользователями сайта, и администрация не несёт ответственности за их содержание. Просьба не заливать файлы, защищенные авторскими правами, а также файлы нелегального содержания!


    _________________
    [Профиль] [ЛС]
    Показать сообщения:    
    Ответить на тему

    Текущее время: Сегодня, в 18:15

    Часовой пояс: GMT + 2



    Вы не можете начинать темы
    Вы не можете отвечать на сообщения
    Вы не можете редактировать свои сообщения
    Вы не можете удалять свои сообщения
    Вы не можете голосовать в опросах
    Вы не можете прикреплять файлы к сообщениям
    Вы не можете скачивать файлы