BitTorrentTracker PerecTracker.org
BitTorrentTracker PerecTracker.org
    
Регистрация  ·  Вход
 
 · 
Забыли пароль?

  • Везучая (Роман Просвирин) [2013, Мелодрама, драма, HDTVRip]

    Ответить на тему
     
    Автор Сообщение

    rechyn

    Создавать темы 08-Дек-2015 23:11

           

    [Цитировать]

    Везучая
    Жанр: Мелодрама, драма
    Год выпуска: 2013
    Продолжительность: 01:31:27
    Режиссёр: Роман Просвирин
    В ролях: Елена Лядова, Алексей Зубков, Юлия Беретта, Александр Наумов, Сергей Погосян, Александр Бобров, Евгения Чиркова
    Описание: рина Боярова - олимпийская чемпионка по бегу. У неё нет ни семьи, ни друзей - вся жизнь героини посвящена спорту. Однажды на курорте у Ирины завязывается роман с врачом Димой. Оба понимают, что их отношения серьёзны, но, по стечению обстоятельств, влюблённые разлучаются, не объяснившись друг с другом... Вскоре Ирина понимает, что беременна. Она приезжает к Диме домой, чтобы сообщить радостную новость, но её радужные надежды в одночасье рушатся...

    Качество видео: HDTVRip [Исходник: HDTV (1080i)]
    Формат видео: AVI
    Видео: XviD, 964 Кбит/с, 656x368 (16:9), 25 кадр/с
    Аудио: Русский, MP3, 48000 Гц, 128 Кбит/с, 2 канала (Стерео)

    Автор рипа - ivandubskoj

    MediaInfo

    General
    Complete name : Vezuchaya.2013.HDTVRip.720MB.avi
    Format : AVI
    Format/Info : Audio Video Interleave
    File size : 721 MiB
    Duration : 1h 31mn
    Overall bit rate : 1 102 Kbps
    Writing application : VirtualDubMod 1.5.10.3 (build 2550/release)
    Writing library : VirtualDubMod build 2550/release
    Copyright : rip by ivandubskoj
    Video
    ID : 0
    Format : MPEG-4 Visual
    Format profile : Advanced Simple@L5
    Format settings, BVOP : 2
    Format settings, QPel : No
    Format settings, GMC : No warppoints
    Format settings, Matrix : Custom
    Codec ID : XVID
    Codec ID/Hint : XviD
    Duration : 1h 31mn
    Bit rate : 964 Kbps
    Width : 656 pixels
    Height : 368 pixels
    Display aspect ratio : 16:9
    Frame rate : 25.000 fps
    Color space : YUV
    Chroma subsampling : 4:2:0
    Bit depth : 8 bits
    Scan type : Progressive
    Compression mode : Lossy
    Bits/(Pixel*Frame) : 0.160
    Stream size : 631 MiB (88%)
    Writing library : XviD 73
    Audio
    ID : 1
    Format : MPEG Audio
    Format version : Version 1
    Format profile : Layer 3
    Codec ID : 55
    Codec ID/Hint : MP3
    Duration : 1h 31mn
    Bit rate mode : Constant
    Bit rate : 128 Kbps
    Channel(s) : 2 channels
    Sampling rate : 48.0 KHz
    Compression mode : Lossy
    Stream size : 83.7 MiB (12%)
    Alignment : Aligned on interleaves
    Interleave, duration : 40 ms (1.00 video frame)
    Interleave, preload duration : 504 ms
    Writing library : LAME3.99r
    Encoding settings : -m s -V 4 -q 0 -lowpass 17 -b 128

    Скриншот c названием фильма

    Скриншоты

    Скачать .torrent

    Скачать торрент-файл бесплатно и на максимальной скорости!

    Как скачивать? · Что такое торрент? · Рейтинг и ограничения

    !ВНИМАНИЕ!
    Сайт не распространяет и не хранит электронные версии произведений, а занимается лишь лишь предоставлением доступа к создаваемому пользователями каталогу ссылок на торрент-файлы, которые содержат только списки хеш-сумм, убедительная просьба с жалобами обращаться напрямую к пользователю. Файлы для обмена на трекере предоставлены пользователями сайта, и администрация не несёт ответственности за их содержание. Просьба не заливать файлы, защищенные авторскими правами, а также файлы нелегального содержания!


    _________________
    [Профиль] [ЛС]
    Показать сообщения:    
    Ответить на тему

    Текущее время: Сегодня, в 10:43

    Часовой пояс: GMT + 2



    Вы не можете начинать темы
    Вы не можете отвечать на сообщения
    Вы не можете редактировать свои сообщения
    Вы не можете удалять свои сообщения
    Вы не можете голосовать в опросах
    Вы не можете прикреплять файлы к сообщениям
    Вы не можете скачивать файлы