BitTorrentTracker PerecTracker.org
BitTorrentTracker PerecTracker.org
    
Регистрация  ·  Вход
 
 · 
Забыли пароль?

  • Год золотой рыбки (Андрей Красавин) [2007, Мелодрама, DVDRip]

    Ответить на тему
     
    Автор Сообщение

    rechyn

    Создавать темы 08-Дек-2015 23:11

           

    [Цитировать]

    Год золотой рыбки--Жанр: Мелодрама
    Год выпуска: 2007
    Продолжительность: 01:47:05
    Режиссёр: Андрей Красавин
    Страна: Россия, Украина--В ролях: Ирина Гринева, Дмитрий Ульянов, Елена Ксенофонтова, Александр Самойленко, Елена Панова, Лариса Руснак, Василий Щипицын, Евгения Дмитриева, Алексей Вертинский, Елена Коренева, Станислав Боклан, Сережа Оксенюк, Юрий Кот
    Описание: У рыжеволосой красавицы-певицы Лады Рыбки все складывается отлично: гастроли, запись на телевидении, любовь. Накануне своей свадьбы Лада собирает бывших одноклассниц: учительницу Асю, милиционера Машу и бизнес-леди Нину на девишник. Лада убеждает их, что в жизни возможно все, необходимо просто четко сформулировать, что же тебе нужно! Подруги пишут на листочках пожелания, а Лада обещает, что они обязательно исполнятся! Только вот Судьба распорядилась по-иному--Сэмпл: http://sendfile.su/1068657
    Качество видео: DVDRip
    Формат видео: AVI
    Видео: 720x400 (16:9), 25.00 fps, ~1739 kbps avg, 0.24 bit/pixel
    Аудио: 48.0 KHz, AC3, 2 ch, ~192 kbps avg

    MediaInfo

    General
    Format : AVI
    Format/Info : Audio Video Interleave
    File size : 1.45 GiB
    Duration : 1h 47mn
    Overall bit rate : 1 941 Kbps
    Writing application : VirtualDubMod 1.5.10.3 | www.virtualdub-fr.org || (build 2550/release)
    Writing library : VirtualDubMod build 2550/release
    Video
    ID : 0
    Format : MPEG-4 Visual
    Format profile : Advanced Simple@L5
    Format settings, BVOP : 1
    Format settings, QPel : No
    Format settings, GMC : No warppoints
    Format settings, Matrix : Default (MPEG)
    Codec ID : XVID
    Codec ID/Hint : XviD
    Duration : 1h 47mn
    Bit rate : 1 739 Kbps
    Width : 720 pixels
    Height : 400 pixels
    Display aspect ratio : 16:9
    Frame rate : 25.000 fps
    Color space : YUV
    Chroma subsampling : 4:2:0
    Bit depth : 8 bits
    Scan type : Progressive
    Compression mode : Lossy
    Bits/(Pixel*Frame) : 0.242
    Stream size : 1.30 GiB (90%)
    Writing library : XviD 73
    Audio
    ID : 1
    Format : AC-3
    Format/Info : Audio Coding 3
    Mode extension : CM (complete main)
    Format settings, Endianness : Big
    Codec ID : 2000
    Duration : 1h 47mn
    Bit rate mode : Constant
    Bit rate : 192 Kbps
    Channel(s) : 2 channels
    Channel positions : Front: L R
    Sampling rate : 48.0 KHz
    Bit depth : 16 bits
    Compression mode : Lossy
    Stream size : 147 MiB (10%)
    Alignment : Split accross interleaves
    Interleave, duration : 40 ms (1.00 video frame)
    Interleave, preload duratio : 500 ms

    Скриншот c названием фильма

    Скриншоты

    Скачать .torrent

    Скачать торрент-файл бесплатно и на максимальной скорости!

    Как скачивать? · Что такое торрент? · Рейтинг и ограничения

    !ВНИМАНИЕ!
    Сайт не распространяет и не хранит электронные версии произведений, а занимается лишь лишь предоставлением доступа к создаваемому пользователями каталогу ссылок на торрент-файлы, которые содержат только списки хеш-сумм, убедительная просьба с жалобами обращаться напрямую к пользователю. Файлы для обмена на трекере предоставлены пользователями сайта, и администрация не несёт ответственности за их содержание. Просьба не заливать файлы, защищенные авторскими правами, а также файлы нелегального содержания!


    _________________
    [Профиль] [ЛС]
    Показать сообщения:    
    Ответить на тему

    Текущее время: Сегодня, в 16:00

    Часовой пояс: GMT + 2



    Вы не можете начинать темы
    Вы не можете отвечать на сообщения
    Вы не можете редактировать свои сообщения
    Вы не можете удалять свои сообщения
    Вы не можете голосовать в опросах
    Вы не можете прикреплять файлы к сообщениям
    Вы не можете скачивать файлы