Register  ·  Log in
Forgot password?

  • Аномалия (Юрий Елхов) [1993, фантастика, притча, VHSRip]

    Reply to topic
    Author Message


    Post 09-Dec-2015 00:11



    Жанр: фантастика, притча
    Год выпуска: 1993
    Продолжительность: 1:16
    Режиссёр: Юрий Елхов
    В ролях: Юозас Будрайтис, Александр Филиппенко, Евгений Стеблов, Виктор Балашов, Светлана Панфилова, Ростислав Янковский, Андрей Касьянов, Владимир Носик, Марк Рудинштейн, Валерий Прохоров, Владимир Епископосян, Альгимантас Масюлис
    Описание: По мотивам научно-фантастического романа Клиффорда Саймака «Всякая плоть — трава».
    В небольшом поселке в последнее время творятся странные вещи, и вскоре он оказывается отрезанным от внешнего мира непреодолимой стеной. Ученый Александр Картин пытается расследовать необычное явление...
    Доп. информация: Фильм оцифрован с лицензионной кассеты в Двд-формат. Меню отсутствует.
    Качество видео: VHSRip
    Формат видео: DVD Video
    Видео: MPEG2 Video 720x576 (4:3) 25.00fps 5632kbps 0.531
    Аудио: MPEG Audio 48000Hz stereo 192kbps


    Complete name : D:\Аномалия 1993 dvd5\VTS_01_1.VOB
    Format : MPEG-PS
    File size : 1 024 MiB
    Duration : 24mn 8s
    Overall bit rate : 5 930 Kbps
    Writing library : (c) 1998-2008 Womble Multimedia, Inc. / MPEG Video Wizard (08/2008) / Dec 31 2008
    ID : 224 (0xE0)
    Format : MPEG Video
    Format version : Version 2
    Format profile : Main@Main
    Format settings, Matrix : Default
    Duration : 24mn 8s
    Bit rate mode : Variable
    Bit rate : 5 503 Kbps
    Nominal bit rate : 5 632 Kbps
    Width : 720 pixels
    Height : 576 pixels
    Display aspect ratio : 4:3
    Frame rate : 25.000 fps
    Standard : PAL
    Colorimetry : 4:2:0
    Scan type : Progressive
    Bits/(Pixel*Frame) : 0.531
    Stream size : 950 MiB (93%)
    Writing library : (c) 1998-2008 Womble Multimedia, Inc. / MPEG Video Wizard (08/2008) / Dec 31 2008
    ID : 192 (0xC0)
    Format : MPEG Audio
    Format version : Version 1
    Format profile : Layer 2
    Duration : 24mn 8s
    Bit rate mode : Constant
    Bit rate : 192 Kbps
    Channel(s) : 2 channels
    Sampling rate : 48.0 KHz
    Resolution : 16 bits
    Video delay : -80ms
    Stream size : 33.1 MiB (3%)


    Size: 3.15 Gb ( 3 305 908 KBytes ) - DVD-5
    Enabled regions: 1, 2, 3, 4, 5, 6, 7, 8
    VTS_01 :
    Play Length: 01:16:06
    Video: PAL 4:3 (720x576) VBR
    English (MPEG1, 2 ch)[/IMG][/URL]

    Скриншот c названием фильма


    Download .torrent

    Download free and at maximum speed!

    How to Download? · What is a torrent? · Ratings and Limitations

    The site does not extend and does not store electronic(digital) versions of products, and only gives access to a reference catalogue created by users on torrent-files which contain only lists of the hash-sums, the earnest entreaty, with complaints(abuse) to access directly to the user. Files for an exchange on tracker are given by users of a site, and the administration does not bear the responsibility for their maintenance. The request to not fill in the files protected by copyrights, and also files of the illegal maintenance!

    [Profile] [PM]
    Display posts from previous:    
    Reply to topic

    The time now is: Today 15:04

    All times are GMT + 3 Hours

    You cannot post new topics in this forum
    You cannot reply to topics in this forum
    You cannot edit your posts in this forum
    You cannot delete your posts in this forum
    You cannot vote in polls in this forum
    You cannot attach files in this forum
    You cannot download files in this forum