BitTorrentTracker PerecTracker.org
BitTorrentTracker PerecTracker.org
    
Регистрация  ·  Вход
 
 · 
Забыли пароль?

  • Золотые ножницы (Михаил Жерневский) [2012, комедийная мелодрама, DVB]

    Ответить на тему
     
    Автор Сообщение

    rechyn

    Создавать темы 08-Дек-2015 23:11

           

    [Цитировать]

    Золотые ножницы
    Год выпуска: 2012
    Жанр: комедийная мелодрама
    Производство: Продюсерская компания "Медиапрофсоюз"
    Продолжительность: 01:32:03
    Субтитры: Украинские (вшитые)
    Режиссёр: Михаил Жерневский
    В ролях: Сергей Мухин, Ольга Сухарева, Сергей Комаров (II), Евгения Гирзекорн, Евгений Никитин, Владимир Воронков, Ирина Шеянова
    Описание: Добрая рождественская сказка, где любовь преодолевает все препятствия, добро торжествует, а зло наказано. Никита, успешный бизнесмен, желая найти девушку, которая полюбила бы его не за деньги, перевоплощается в бедного студента и дает объявление о знакомстве в газету.
    Лиза, практикантка из милиции, по заданию начальника ищет странноватого маньяка, отрезающего девушкам косы. Одна ошибка в объявлении – и герои встречаются. Но Лиза видит в Никите того самого преступника, а он в таинственной незнакомке – девушку мечты. Далее следует серия блестящих недоразумений, а в результате герои не только остаются вместе, но и Лизе удается спасти бизнес Никиты, которым в отсутствие директора решили завладеть коварные партнеры.

    Качество: DVB
    Контейнер: MPEG
    Видео: MPEG 768х576 @ 720x576 (4:3) 25.00fps ~4471 Kbps (0.431 bit/pixel)
    Аудио: MPEG Audio 48000Hz 1 channels 192 Кбит/сек
    Сторонней рекламы нет!

    MediaInfo

    ОбщееПолное имя : H:\Золотые ножницы DVB_by_Серый1779.mpgФормат : MPEG-PSРазмер файла : 3,06 ГбайтПродолжительность : 1 ч. 32 м.Общий поток : 4758 Кбит/сек
    ВидеоИдентификатор : 224 (0xE0)Формат : MPEG VideoВерсия формата : Version 2Профиль формата : Main@MainПараметр BVOP формата : НетПараметр матрицы формата : По умолчаниюПродолжительность : 1 ч. 32 м.Вид битрейта : ПеременныйБитрейт : 4471 Кбит/секНоминальный битрейт : 15,0 Мбит/секШирина : 720 пикс.Высота : 576 пикс.Соотношение сторон : 4:3Частота кадров : 25,000 кадр/секСтандарт вещания : PALЦветовое пространство : YUVПодвыборка цветности : 4:2:0Битовая глубина : 8 битТип развёртки : ЧересстрочнаяПорядок развёртки : Верхнее поле первоеМетод сжатия : С потерямиБит/(Пиксели*Кадры) : 0.431Размер потока : 2,88 Гбайт (94%)
    АудиоИдентификатор : 192 (0xC0)Формат : MPEG AudioВерсия формата : Version 1Профиль формата : Layer 2Продолжительность : 1 ч. 32 м.Вид битрейта : ПостоянныйБитрейт : 192 Кбит/секКаналы : 1 каналЧастота : 48,0 КГцМетод сжатия : С потерямиРазмер потока : 126 Мбайт (4%)
    Запись и монтаж:
    Раздача группы:

    Скриншот c названием фильма

    Скриншоты

    Скачать .torrent

    Скачать торрент-файл бесплатно и на максимальной скорости!

    Как скачивать? · Что такое торрент? · Рейтинг и ограничения

    !ВНИМАНИЕ!
    Сайт не распространяет и не хранит электронные версии произведений, а занимается лишь лишь предоставлением доступа к создаваемому пользователями каталогу ссылок на торрент-файлы, которые содержат только списки хеш-сумм, убедительная просьба с жалобами обращаться напрямую к пользователю. Файлы для обмена на трекере предоставлены пользователями сайта, и администрация не несёт ответственности за их содержание. Просьба не заливать файлы, защищенные авторскими правами, а также файлы нелегального содержания!


    _________________
    [Профиль] [ЛС]
    Показать сообщения:    
    Ответить на тему

    Текущее время: Сегодня, в 06:11

    Часовой пояс: GMT + 2



    Вы не можете начинать темы
    Вы не можете отвечать на сообщения
    Вы не можете редактировать свои сообщения
    Вы не можете удалять свои сообщения
    Вы не можете голосовать в опросах
    Вы не можете прикреплять файлы к сообщениям
    Вы не можете скачивать файлы