BitTorrentTracker PerecTracker.org
BitTorrentTracker PerecTracker.org
    
Регистрация  ·  Вход
 
 · 
Забыли пароль?

  • Обними меня (Максим Демченко) [2014, Мелодрама, DVB]

    Ответить на тему
     
    Автор Сообщение

    rechyn

    Создавать темы 08-Дек-2015 23:11

           

    [Цитировать]

    Обними меня
    Год выпуска: 2014
    Жанр: Мелодрама
    Производство: Фаворит-фильм
    Продолжительность: 01:42:03
    Субтитры: Украинские (вшитые)
    Режиссёр: Максим Демченко
    В ролях: Дарья Мороз, Виктор Добронравов, Юлия Кудояр, Алексей Симонов, Сергей Маркеев, Алексей Красноцветов, Михаил Сидаш
    Описание: Главная героиня отбыла тюремное наказание за "за свою глупость" верить людям. Дома ее ждет маленькая дочь и мать. А вот в своем доме она встретила уже новую жену своего теперь уже бывшего и начальник прежней работы с цинизмом ей отказывает восстановиться. Ко всему прочему появляются враги, боящиеся что она заговорит. Но в ее жизни появится защитник....

    Качество: DVB
    Контейнер: MPEG
    Видео: MPEG 768х576 @ 704x576 (4:3) 25.00fps ~2645 Kbps (0.261 bit/pixel)
    Аудио: MPEG Audio 48000Hz 2 channels 192 Кбит/сек
    Сторонней рекламы нет!

    MediaInfo

    ОбщееПолное имя : H:\Обними меня DVB_by_Серый1779.mpgФормат : MPEG-PSРазмер файла : 2,07 ГбайтПродолжительность : 1 ч. 42 м.Общий поток : 2895 Кбит/сек
    ВидеоИдентификатор : 224 (0xE0)Формат : MPEG VideoВерсия формата : Version 2Профиль формата : Main@MainПараметр BVOP формата : НетПараметр матрицы формата : По умолчаниюПараметры GOP формата : M=1, N=26Продолжительность : 1 ч. 42 м.Вид битрейта : ПеременныйБитрейт : 2645 Кбит/секНоминальный битрейт : 15,0 Мбит/секШирина : 704 пикс.Высота : 576 пикс.Соотношение сторон : 4:3Частота кадров : 25,000 кадр/секСтандарт вещания : PALЦветовое пространство : YUVПодвыборка цветности : 4:2:0Битовая глубина : 8 битТип развёртки : ЧересстрочнаяПорядок развёртки : Верхнее поле первоеМетод сжатия : С потерямиБит/(Пиксели*Кадры) : 0.261Размер потока : 1,89 Гбайт (91%)
    АудиоИдентификатор : 192 (0xC0)Формат : MPEG AudioВерсия формата : Version 1Профиль формата : Layer 2Продолжительность : 1 ч. 42 м.Вид битрейта : ПостоянныйБитрейт : 192 Кбит/секКаналы : 2 каналаЧастота : 48,0 КГцМетод сжатия : С потерямиРазмер потока : 140 Мбайт (7%)
    Запись и монтаж:
    Раздача группы:

    Скриншот c названием фильма

    Скриншоты

    Скачать .torrent

    Скачать торрент-файл бесплатно и на максимальной скорости!

    Как скачивать? · Что такое торрент? · Рейтинг и ограничения

    !ВНИМАНИЕ!
    Сайт не распространяет и не хранит электронные версии произведений, а занимается лишь лишь предоставлением доступа к создаваемому пользователями каталогу ссылок на торрент-файлы, которые содержат только списки хеш-сумм, убедительная просьба с жалобами обращаться напрямую к пользователю. Файлы для обмена на трекере предоставлены пользователями сайта, и администрация не несёт ответственности за их содержание. Просьба не заливать файлы, защищенные авторскими правами, а также файлы нелегального содержания!


    _________________
    [Профиль] [ЛС]
    Показать сообщения:    
    Ответить на тему

    Текущее время: Сегодня, в 20:24

    Часовой пояс: GMT + 2



    Вы не можете начинать темы
    Вы не можете отвечать на сообщения
    Вы не можете редактировать свои сообщения
    Вы не можете удалять свои сообщения
    Вы не можете голосовать в опросах
    Вы не можете прикреплять файлы к сообщениям
    Вы не можете скачивать файлы