Register  ·  Log in
Forgot password?

  • Только не уходи (Александр Михайлов) [1992, Драма, мелодрама, DVB]

    Reply to topic
    Author Message


    Post 09-Dec-2015 00:11



    Только не уходи
    Жанр: Драма, мелодрама
    Год выпуска: 1992
    Продолжительность: 1:16:46
    Режиссёр: Александр Михайлов
    В ролях: Елена Сотникова, Александр Михайлов, Людмила Баранова, Юрий Васильев, Борис Клюев, Вячеслав Езепов, Яна Бадер, Рудольф Рудин, Степан Старчиков, Валентина Панина, Алена Михеева, Алексей Михайлов (II), Сергей Джигурда, Галина Дёмина, Анатолий Михеев, Юрий Лахин, Ильхам Ханбудагов, Александр Артёмов (II), Людмила Безыменная, Алёна Бузылёва, Павел Жаворонков, Михаил Кравченко
    Описание: История молодой, красивой женщины, внезапно узнающей о том, что она неизлечимо больна. Бросив престижную работу в Москве она уезжает в маленький провинциальный городок, где оказавшись на грани отчаяния, встречает настоящую любовь.
    Доп. информация: Производство: Фора-фильм
    Качество видео: DVB
    Формат видео: MPEG-PS
    Видео: MPEG Video , 704x400(16:9), 25,000 кадров/сек, 2987 Kbps
    Аудио: MPEG Audio, 44,1 КГц, 224 Кбит/сек, 2 канала


    Complete name Только не уходи 1992.mpg
    Format : MPEG-PS
    File size : 1.76 GiB
    Duration : 1h 16mn
    Overall bit rate mode : Variable
    Overall bit rate : 3 276 Kbps
    Writing library : Created by Nero
    ID : 224 (0xE0)
    Format : MPEG Video
    Format version : Version 2
    Format profile : Main@Main
    Format settings, BVOP : Yes
    Format settings, Matrix : Custom
    Format settings, GOP : Variable
    Duration : 1h 16mn
    Bit rate mode : Variable
    Bit rate : 2 987 Kbps
    Maximum bit rate : 6 002 Kbps
    Width : 704 pixels
    Height : 400 pixels
    Display aspect ratio : 16:9
    Frame rate : 25.000 fps
    Color space : YUV
    Chroma subsampling : 4:2:0
    Bit depth : 8 bits
    Scan type : Progressive
    Scan order : Bottom Field First
    Compression mode : Lossy
    Bits/(Pixel*Frame) : 0.424
    Time code of first frame : 00:00:00:00
    Time code source : Group of pictures header
    GOP, Open/Closed : Open
    Stream size : 1.60 GiB (91%)
    Writing library : Created by Nero
    GOP, Open/Closed of first f : Closed
    ID : 192 (0xC0)
    Format : MPEG Audio
    Format version : Version 1
    Format profile : Layer 2
    Duration : 1h 16mn
    Bit rate mode : Constant
    Bit rate : 224 Kbps
    Channel(s) : 2 channels
    Sampling rate : 44.1 KHz
    Compression mode : Lossy
    Delay relative to video : -40ms
    Stream size : 123 MiB (7%)

    Скриншот c названием фильма


    Download .torrent

    Download free and at maximum speed!

    How to Download? · What is a torrent? · Ratings and Limitations

    The site does not extend and does not store electronic(digital) versions of products, and only gives access to a reference catalogue created by users on torrent-files which contain only lists of the hash-sums, the earnest entreaty, with complaints(abuse) to access directly to the user. Files for an exchange on tracker are given by users of a site, and the administration does not bear the responsibility for their maintenance. The request to not fill in the files protected by copyrights, and also files of the illegal maintenance!

    [Profile] [PM]
    Display posts from previous:    
    Reply to topic

    The time now is: Today 13:56

    All times are GMT + 3 Hours

    You cannot post new topics in this forum
    You cannot reply to topics in this forum
    You cannot edit your posts in this forum
    You cannot delete your posts in this forum
    You cannot vote in polls in this forum
    You cannot attach files in this forum
    You cannot download files in this forum