BitTorrentTracker PerecTracker.org
BitTorrentTracker PerecTracker.org
    
Регистрация  ·  Вход
 
 · 
Забыли пароль?

  • Только не уходи (Александр Михайлов) [1992, Драма, мелодрама, DVB]

    Ответить на тему
     
    Автор Сообщение

    rechyn

    Создавать темы 08-Дек-2015 23:11

           

    [Цитировать]

    Только не уходи
    Жанр: Драма, мелодрама
    Год выпуска: 1992
    Продолжительность: 1:16:46
    Режиссёр: Александр Михайлов
    В ролях: Елена Сотникова, Александр Михайлов, Людмила Баранова, Юрий Васильев, Борис Клюев, Вячеслав Езепов, Яна Бадер, Рудольф Рудин, Степан Старчиков, Валентина Панина, Алена Михеева, Алексей Михайлов (II), Сергей Джигурда, Галина Дёмина, Анатолий Михеев, Юрий Лахин, Ильхам Ханбудагов, Александр Артёмов (II), Людмила Безыменная, Алёна Бузылёва, Павел Жаворонков, Михаил Кравченко
    Описание: История молодой, красивой женщины, внезапно узнающей о том, что она неизлечимо больна. Бросив престижную работу в Москве она уезжает в маленький провинциальный городок, где оказавшись на грани отчаяния, встречает настоящую любовь.
    Доп. информация: Производство: Фора-фильм
    Сэмпл: https://www.sendspace.com/file/ucyfwk
    Качество видео: DVB
    Формат видео: MPEG-PS
    Видео: MPEG Video , 704x400(16:9), 25,000 кадров/сек, 2987 Kbps
    Аудио: MPEG Audio, 44,1 КГц, 224 Кбит/сек, 2 канала

    MediaInfo

    Complete name Только не уходи 1992.mpg
    Format : MPEG-PS
    File size : 1.76 GiB
    Duration : 1h 16mn
    Overall bit rate mode : Variable
    Overall bit rate : 3 276 Kbps
    Writing library : Created by Nero
    Video
    ID : 224 (0xE0)
    Format : MPEG Video
    Format version : Version 2
    Format profile : Main@Main
    Format settings, BVOP : Yes
    Format settings, Matrix : Custom
    Format settings, GOP : Variable
    Duration : 1h 16mn
    Bit rate mode : Variable
    Bit rate : 2 987 Kbps
    Maximum bit rate : 6 002 Kbps
    Width : 704 pixels
    Height : 400 pixels
    Display aspect ratio : 16:9
    Frame rate : 25.000 fps
    Color space : YUV
    Chroma subsampling : 4:2:0
    Bit depth : 8 bits
    Scan type : Progressive
    Scan order : Bottom Field First
    Compression mode : Lossy
    Bits/(Pixel*Frame) : 0.424
    Time code of first frame : 00:00:00:00
    Time code source : Group of pictures header
    GOP, Open/Closed : Open
    Stream size : 1.60 GiB (91%)
    Writing library : Created by Nero
    GOP, Open/Closed of first f : Closed
    Audio
    ID : 192 (0xC0)
    Format : MPEG Audio
    Format version : Version 1
    Format profile : Layer 2
    Duration : 1h 16mn
    Bit rate mode : Constant
    Bit rate : 224 Kbps
    Channel(s) : 2 channels
    Sampling rate : 44.1 KHz
    Compression mode : Lossy
    Delay relative to video : -40ms
    Stream size : 123 MiB (7%)

    Скриншот c названием фильма

    Скриншоты

    Скачать .torrent

    Скачать торрент-файл бесплатно и на максимальной скорости!

    Как скачивать? · Что такое торрент? · Рейтинг и ограничения

    !ВНИМАНИЕ!
    Сайт не распространяет и не хранит электронные версии произведений, а занимается лишь лишь предоставлением доступа к создаваемому пользователями каталогу ссылок на торрент-файлы, которые содержат только списки хеш-сумм, убедительная просьба с жалобами обращаться напрямую к пользователю. Файлы для обмена на трекере предоставлены пользователями сайта, и администрация не несёт ответственности за их содержание. Просьба не заливать файлы, защищенные авторскими правами, а также файлы нелегального содержания!


    _________________
    [Профиль] [ЛС]
    Показать сообщения:    
    Ответить на тему

    Текущее время: Сегодня, в 18:09

    Часовой пояс: GMT + 2



    Вы не можете начинать темы
    Вы не можете отвечать на сообщения
    Вы не можете редактировать свои сообщения
    Вы не можете удалять свои сообщения
    Вы не можете голосовать в опросах
    Вы не можете прикреплять файлы к сообщениям
    Вы не можете скачивать файлы