Register  ·  Log in
Forgot password?

  • Поводырь (Александр Хван) [2007, Боевик, драма, DVB-AVC]

    Reply to topic
    Author Message


    Post 09-Dec-2015 00:11



    Год выпуска: 2007
    Производство: Россия
    Жанр: Боевик, драма
    Продолжительность: 01:32:59
    Субтитры: нет
    Режиссёр: Александр Хван
    В ролях: Игорь Лифанов, Владимир Головин, Лариса Малеванная, Евгений Меркурьев, Елена Слатина, Антоний Красиков, Оксана Базилевич, Сергей Дьячков, Алексей Федькин, Андрей Шарков, Татьяна Рябоконь, Владимир Баранов, Ольга Медынич
    Описание: Павел Шнырев - профессиональный киллер. У него много врагов и масса проблем. От матери, попавшей в больницу, Павел узнает, что его отец жив. Он едет в далекую деревню и находит отца, ослепшего много лет назад. Его единственный помощник - собака-поводырь. Неожиданно Павел понимает, что его отец видит некоторые вещи гораздо лучше, чем он сам.
    Раздача группы:
    Качество: DVB
    Формат: TS
    Видео кодек: AVC
    Аудио кодек: MP2
    Видео: AVC, 720х576 (4:3), 3085 Kbps, 25 fps, Bits/(Pixel*Frame) : 0.296
    Аудио: MP2, 256 Kbps, 48.0 KHz, 2 ch


    General #1
    ID : 1 (0x1)
    Complete name : D:\видео\Поводырь.ts
    Format : MPEG-TS
    File size : 2.28 GiB
    Duration : 1h 32mn
    Overall bit rate : 3 518 Kbps
    Video #1253
    ID : 1253 (0x4E5)
    Menu ID : 1 (0x1)
    Format : AVC
    Format/Info : Advanced Video Codec
    Format profile : High@L3.0
    Format settings, CABAC : Yes
    Format settings, ReFrames : 3 frames
    Format settings, GOP : M=4, N=28
    Codec ID : 27
    Duration : 1h 32mn
    Bit rate : 3 085 Kbps
    Width : 720 pixels
    Height : 576 pixels
    Display aspect ratio : 4:3
    Frame rate : 25.000 fps
    Standard : Component
    Color space : YUV
    Chroma subsampling : 4:2:0
    Bit depth : 8 bits
    Scan type : Progressive
    Bits/(Pixel*Frame) : 0.298
    Stream size : 2.00 GiB (88%)
    Color primaries : BT.470-6 System B, BT.470-6 System G, BT.601-6 625, BT.1358 625, BT.1700 625 PAL, BT.1700 625 SECAM
    Transfer characteristics : BT.470-6 System B, BT.470-6 System G
    Matrix coefficients : BT.470-6 System B, BT.470-6 System G, BT.601-6 625, BT.1358 625, BT.1700 625 PAL, BT.1700 625 SECAM, IEC 61966-2-4 601
    Audio #2253
    ID : 2253 (0x8CD)
    Menu ID : 1 (0x1)
    Format : MPEG Audio
    Format version : Version 1
    Format profile : Layer 2
    Codec ID : 3
    Duration : 1h 32mn
    Bit rate mode : Constant
    Bit rate : 256 Kbps
    Channel(s) : 2 channels
    Sampling rate : 48.0 KHz
    Compression mode : Lossy
    Stream size : 170 MiB (7%)
    Language : English


    Download .torrent

    Download free and at maximum speed!

    How to Download? · What is a torrent? · Ratings and Limitations

    The site does not extend and does not store electronic(digital) versions of products, and only gives access to a reference catalogue created by users on torrent-files which contain only lists of the hash-sums, the earnest entreaty, with complaints(abuse) to access directly to the user. Files for an exchange on tracker are given by users of a site, and the administration does not bear the responsibility for their maintenance. The request to not fill in the files protected by copyrights, and also files of the illegal maintenance!

    [Profile] [PM]
    Display posts from previous:    
    Reply to topic

    The time now is: Today 06:39

    All times are GMT + 3 Hours

    You cannot post new topics in this forum
    You cannot reply to topics in this forum
    You cannot edit your posts in this forum
    You cannot delete your posts in this forum
    You cannot vote in polls in this forum
    You cannot attach files in this forum
    You cannot download files in this forum