BitTorrentTracker PerecTracker.org
BitTorrentTracker PerecTracker.org
    
Регистрация  ·  Вход
 
 · 
Забыли пароль?

  • Поводырь (Александр Хван) [2007, Боевик, драма, DVB-AVC]

    Ответить на тему
     
    Автор Сообщение

    rechyn

    Создавать темы 08-Дек-2015 23:11

           

    [Цитировать]

    Поводырь
    Год выпуска: 2007
    Производство: Россия
    Жанр: Боевик, драма
    Продолжительность: 01:32:59
    Субтитры: нет
    Режиссёр: Александр Хван
    В ролях: Игорь Лифанов, Владимир Головин, Лариса Малеванная, Евгений Меркурьев, Елена Слатина, Антоний Красиков, Оксана Базилевич, Сергей Дьячков, Алексей Федькин, Андрей Шарков, Татьяна Рябоконь, Владимир Баранов, Ольга Медынич
    Описание: Павел Шнырев - профессиональный киллер. У него много врагов и масса проблем. От матери, попавшей в больницу, Павел узнает, что его отец жив. Он едет в далекую деревню и находит отца, ослепшего много лет назад. Его единственный помощник - собака-поводырь. Неожиданно Павел понимает, что его отец видит некоторые вещи гораздо лучше, чем он сам.
    Раздача группы:
    Сэмпл
    Качество: DVB
    Формат: TS
    Видео кодек: AVC
    Аудио кодек: MP2
    Видео: AVC, 720х576 (4:3), 3085 Kbps, 25 fps, Bits/(Pixel*Frame) : 0.296
    Аудио: MP2, 256 Kbps, 48.0 KHz, 2 ch

    MI

    D:\видео\Поводырь.ts
    General #1
    ID : 1 (0x1)
    Complete name : D:\видео\Поводырь.ts
    Format : MPEG-TS
    File size : 2.28 GiB
    Duration : 1h 32mn
    Overall bit rate : 3 518 Kbps
    Video #1253
    ID : 1253 (0x4E5)
    Menu ID : 1 (0x1)
    Format : AVC
    Format/Info : Advanced Video Codec
    Format profile : High@L3.0
    Format settings, CABAC : Yes
    Format settings, ReFrames : 3 frames
    Format settings, GOP : M=4, N=28
    Codec ID : 27
    Duration : 1h 32mn
    Bit rate : 3 085 Kbps
    Width : 720 pixels
    Height : 576 pixels
    Display aspect ratio : 4:3
    Frame rate : 25.000 fps
    Standard : Component
    Color space : YUV
    Chroma subsampling : 4:2:0
    Bit depth : 8 bits
    Scan type : Progressive
    Bits/(Pixel*Frame) : 0.298
    Stream size : 2.00 GiB (88%)
    Color primaries : BT.470-6 System B, BT.470-6 System G, BT.601-6 625, BT.1358 625, BT.1700 625 PAL, BT.1700 625 SECAM
    Transfer characteristics : BT.470-6 System B, BT.470-6 System G
    Matrix coefficients : BT.470-6 System B, BT.470-6 System G, BT.601-6 625, BT.1358 625, BT.1700 625 PAL, BT.1700 625 SECAM, IEC 61966-2-4 601
    Audio #2253
    ID : 2253 (0x8CD)
    Menu ID : 1 (0x1)
    Format : MPEG Audio
    Format version : Version 1
    Format profile : Layer 2
    Codec ID : 3
    Duration : 1h 32mn
    Bit rate mode : Constant
    Bit rate : 256 Kbps
    Channel(s) : 2 channels
    Sampling rate : 48.0 KHz
    Compression mode : Lossy
    Stream size : 170 MiB (7%)
    Language : English

    Скриншоты

    Скачать .torrent

    Скачать торрент-файл бесплатно и на максимальной скорости!

    Как скачивать? · Что такое торрент? · Рейтинг и ограничения

    !ВНИМАНИЕ!
    Сайт не распространяет и не хранит электронные версии произведений, а занимается лишь лишь предоставлением доступа к создаваемому пользователями каталогу ссылок на торрент-файлы, которые содержат только списки хеш-сумм, убедительная просьба с жалобами обращаться напрямую к пользователю. Файлы для обмена на трекере предоставлены пользователями сайта, и администрация не несёт ответственности за их содержание. Просьба не заливать файлы, защищенные авторскими правами, а также файлы нелегального содержания!


    _________________
    [Профиль] [ЛС]
    Показать сообщения:    
    Ответить на тему

    Текущее время: Сегодня, в 09:05

    Часовой пояс: GMT + 2



    Вы не можете начинать темы
    Вы не можете отвечать на сообщения
    Вы не можете редактировать свои сообщения
    Вы не можете удалять свои сообщения
    Вы не можете голосовать в опросах
    Вы не можете прикреплять файлы к сообщениям
    Вы не можете скачивать файлы