Register  ·  Log in
Forgot password?

  • Любить по-русски 2 (Евгений Матвеев) [1996, остросюжетная мелодрама, DVB]

    Reply to topic
    Author Message


    Post 09-Dec-2015 00:11



    Любить по-русски 2
    Жанр: остросюжетная мелодрама
    Год выпуска: 1996
    Продолжительность: 01:27:00
    Режиссёры: Евгений Матвеев
    В ролях: Евгений Матвеев, Галина Польских, Георгий Мартиросян, Лариса Удовиченко, Ольга Егорова, Никита Джигурда
    Описание: в фильме "Любить по-русски 2" жены воюют одни: надо вызволять из тюрьмы своих мужей, которых упрятали туда противники - продажные чиновники с местной мафией... События принимают неожиданный оборот. Герои не только выходят на свободу, но и становятся важными фигурами в предвыборной кампании: вчерашнего зека Мухина народ выдвигает на должность губернатора. Новые персонажи, новые любовные линии, нарастающее давление мафии делают фильм динамичным и захватывающим, что не мешает вновь проявиться трогательной романтике человеческих отношений.
    Доп. информация: конечные титры немного ускорены

    Качество видео: DVB (Yamal 402 at 54.9°E)
    Формат видео: MPEG-PS
    Видео: MPEG2 Video, 720x576 (4:3), 25 fps, 4500 kbps
    Аудио: MPEG Audiо, 2 сh, 48 kHz, 192 kbps


    Complete name : G:\Любить по-русски 2. (1996)_DVB by SLuMeP.mpg
    Format : MPEG-PS
    File size : 2.88 GiB
    Duration : 1h 27mn
    Overall bit rate mode : Variable
    Overall bit rate : 4 746 Kbps
    Writing library : (dvd5: Jun 16 2014)
    ID : 224 (0xE0)
    Format : MPEG Video
    Format version : Version 2
    Format profile : Main@Main
    Format settings, BVOP : Yes
    Format settings, Matrix : Custom
    Format settings, GOP : M=3, N=12
    Duration : 1h 27mn
    Bit rate mode : Variable
    Bit rate : 4 459 Kbps
    Maximum bit rate : 15.0 Mbps
    Width : 720 pixels
    Height : 576 pixels
    Display aspect ratio : 4:3
    Frame rate : 25.000 fps
    Standard : PAL
    Color space : YUV
    Chroma subsampling : 4:2:0
    Bit depth : 8 bits
    Scan type : Interlaced
    Scan order : Top Field First
    Compression mode : Lossy
    Bits/(Pixel*Frame) : 0.430
    Time code of first frame : 00:00:00:00
    Time code source : Group of pictures header
    Stream size : 2.71 GiB (94%)
    Source encoded stream size : (dvd5: Jun 16 2014)
    Writing library : (dvd5: Jun 16 2014)
    ID : 192 (0xC0)
    Format : MPEG Audio
    Format version : Version 1
    Format profile : Layer 2
    Duration : 1h 27mn
    Bit rate mode : Constant
    Bit rate : 192 Kbps
    Channel(s) : 2 channels
    Sampling rate : 48.0 KHz
    Compression mode : Lossy
    Delay relative to video : -80ms
    Stream size : 119 MiB (4%)


    Download .torrent

    Download free and at maximum speed!

    How to Download? · What is a torrent? · Ratings and Limitations

    The site does not extend and does not store electronic(digital) versions of products, and only gives access to a reference catalogue created by users on torrent-files which contain only lists of the hash-sums, the earnest entreaty, with complaints(abuse) to access directly to the user. Files for an exchange on tracker are given by users of a site, and the administration does not bear the responsibility for their maintenance. The request to not fill in the files protected by copyrights, and also files of the illegal maintenance!

    [Profile] [PM]
    Display posts from previous:    
    Reply to topic

    The time now is: Today 16:53

    All times are GMT + 3 Hours

    You cannot post new topics in this forum
    You cannot reply to topics in this forum
    You cannot edit your posts in this forum
    You cannot delete your posts in this forum
    You cannot vote in polls in this forum
    You cannot attach files in this forum
    You cannot download files in this forum