BitTorrentTracker PerecTracker.org
BitTorrentTracker PerecTracker.org
    
Регистрация  ·  Вход
 
 · 
Забыли пароль?

  • Любить по-русски 2 (Евгений Матвеев) [1996, остросюжетная мелодрама, DVB]

    Ответить на тему
     
    Автор Сообщение

    rechyn

    Создавать темы 08-Дек-2015 23:11

           

    [Цитировать]

    Любить по-русски 2
    Жанр: остросюжетная мелодрама
    Год выпуска: 1996
    Продолжительность: 01:27:00
    Режиссёры: Евгений Матвеев
    В ролях: Евгений Матвеев, Галина Польских, Георгий Мартиросян, Лариса Удовиченко, Ольга Егорова, Никита Джигурда
    Описание: в фильме "Любить по-русски 2" жены воюют одни: надо вызволять из тюрьмы своих мужей, которых упрятали туда противники - продажные чиновники с местной мафией... События принимают неожиданный оборот. Герои не только выходят на свободу, но и становятся важными фигурами в предвыборной кампании: вчерашнего зека Мухина народ выдвигает на должность губернатора. Новые персонажи, новые любовные линии, нарастающее давление мафии делают фильм динамичным и захватывающим, что не мешает вновь проявиться трогательной романтике человеческих отношений.
    Доп. информация: конечные титры немного ускорены

    Семпл: https://yadi.sk/i/j4F9UwbZdtZzH
    Качество видео: DVB (Yamal 402 at 54.9°E)
    Формат видео: MPEG-PS
    Видео: MPEG2 Video, 720x576 (4:3), 25 fps, 4500 kbps
    Аудио: MPEG Audiо, 2 сh, 48 kHz, 192 kbps

    MediaInfo

    General
    Complete name : G:\Любить по-русски 2. (1996)_DVB by SLuMeP.mpg
    Format : MPEG-PS
    File size : 2.88 GiB
    Duration : 1h 27mn
    Overall bit rate mode : Variable
    Overall bit rate : 4 746 Kbps
    Writing library : (dvd5: Jun 16 2014)
    Video
    ID : 224 (0xE0)
    Format : MPEG Video
    Format version : Version 2
    Format profile : Main@Main
    Format settings, BVOP : Yes
    Format settings, Matrix : Custom
    Format settings, GOP : M=3, N=12
    Duration : 1h 27mn
    Bit rate mode : Variable
    Bit rate : 4 459 Kbps
    Maximum bit rate : 15.0 Mbps
    Width : 720 pixels
    Height : 576 pixels
    Display aspect ratio : 4:3
    Frame rate : 25.000 fps
    Standard : PAL
    Color space : YUV
    Chroma subsampling : 4:2:0
    Bit depth : 8 bits
    Scan type : Interlaced
    Scan order : Top Field First
    Compression mode : Lossy
    Bits/(Pixel*Frame) : 0.430
    Time code of first frame : 00:00:00:00
    Time code source : Group of pictures header
    Stream size : 2.71 GiB (94%)
    Source encoded stream size : (dvd5: Jun 16 2014)
    Writing library : (dvd5: Jun 16 2014)
    Audio
    ID : 192 (0xC0)
    Format : MPEG Audio
    Format version : Version 1
    Format profile : Layer 2
    Duration : 1h 27mn
    Bit rate mode : Constant
    Bit rate : 192 Kbps
    Channel(s) : 2 channels
    Sampling rate : 48.0 KHz
    Compression mode : Lossy
    Delay relative to video : -80ms
    Stream size : 119 MiB (4%)
    Menu

    Скриншоты


    Скачать .torrent

    Скачать торрент-файл бесплатно и на максимальной скорости!

    Как скачивать? · Что такое торрент? · Рейтинг и ограничения

    !ВНИМАНИЕ!
    Сайт не распространяет и не хранит электронные версии произведений, а занимается лишь лишь предоставлением доступа к создаваемому пользователями каталогу ссылок на торрент-файлы, которые содержат только списки хеш-сумм, убедительная просьба с жалобами обращаться напрямую к пользователю. Файлы для обмена на трекере предоставлены пользователями сайта, и администрация не несёт ответственности за их содержание. Просьба не заливать файлы, защищенные авторскими правами, а также файлы нелегального содержания!


    _________________
    [Профиль] [ЛС]
    Показать сообщения:    
    Ответить на тему

    Текущее время: Сегодня, в 22:27

    Часовой пояс: GMT + 2



    Вы не можете начинать темы
    Вы не можете отвечать на сообщения
    Вы не можете редактировать свои сообщения
    Вы не можете удалять свои сообщения
    Вы не можете голосовать в опросах
    Вы не можете прикреплять файлы к сообщениям
    Вы не можете скачивать файлы