Register  ·  Log in
Forgot password?

  • Свободная зона (Дмитрий Зайцев) [1992, драма, VHSRip]

    Reply to topic
    Author Message


    Post 09-Dec-2015 00:11



    Свободная зона
    Жанр: драма
    Год выпуска: 1992
    Страна: Россия, Беларусь
    Продолжительность: 01:08:49
    Режиссёр: Дмитрий Зайцев
    В ролях: Анатолий Васильев, Сергей Латун, Михаил Матвеев, Инна Хрулева, Александр Сайко, Борис Клюев, Виктор Плют, Александр Тимошкин, Всеволод Платов, Юрий Казючиц, Иван Мацкевич, Ольга Егорова, Роман Лужков, Ольга Недоводина, Оксана Юрченкова
    Описание: В основе сюжета - история спасения научно-исследовательского судна "Шторм".
    Доп. информация: Оцифровка VHS (личный архив) и получение VHSRip alenavova
    Эксклюзив для При размещении данного релиза на других сайтах ссылка на автора alenavova обязательна.

    Качество видео: VHSRip
    Формат видео: AVI
    Видео: 640x480 (1.33:1), 25 fps, XviD build 50 ~1999 kbps avg, 0.26 bit/pixel
    Аудио: 48 kHz, AC3 Dolby Digital, 2/0 (L,R) ch, ~192 kbps


    Свободная зона [by alenavova].avi
    Format : AVI
    Format/Info : Audio Video Interleave
    File size : 1.06 GiB
    Duration : 1h 8mn
    Overall bit rate : 2 202 Kbps
    Movie name : Свободная зона [by alenavova]
    Director : by alenavova
    Writing application : VirtualDubMod | || (build 2550/release)
    Copyright : Edich2
    Comment :
    ID : 0
    Format : MPEG-4 Visual
    Format profile : Advanced Simple@L5
    Format settings, BVOP : 1
    Format settings, QPel : No
    Format settings, GMC : No warppoints
    Format settings, Matrix : Default (MPEG)
    Codec ID : XVID
    Codec ID/Hint : XviD
    Duration : 1h 8mn
    Bit rate : 2 000 Kbps
    Width : 640 pixels
    Height : 480 pixels
    Display aspect ratio : 4:3
    Frame rate : 25.000 fps
    Color space : YUV
    Chroma subsampling : 4:2:0
    Bit depth : 8 bits
    Scan type : Progressive
    Compression mode : Lossy
    Bits/(Pixel*Frame) : 0.260
    Stream size : 984 MiB (91%)
    Writing library : XviD 1.2.1 (UTC 2008-12-04)
    ID : 1
    Format : AC-3
    Format/Info : Audio Coding 3
    Mode extension : CM (complete main)
    Format settings, Endianness : Big
    Codec ID : 2000
    Duration : 1h 8mn
    Bit rate mode : Constant
    Bit rate : 192 Kbps
    Channel(s) : 2 channels
    Channel positions : Front: L R
    Sampling rate : 48.0 KHz
    Bit depth : 16 bits
    Compression mode : Lossy
    Stream size : 94.5 MiB (9%)
    Alignment : Split accross interleaves
    Interleave, duration : 40 ms (1.00 video frame)
    Interleave, preload duration : 500 ms


    Download .torrent

    Download free and at maximum speed!

    How to Download? · What is a torrent? · Ratings and Limitations

    The site does not extend and does not store electronic(digital) versions of products, and only gives access to a reference catalogue created by users on torrent-files which contain only lists of the hash-sums, the earnest entreaty, with complaints(abuse) to access directly to the user. Files for an exchange on tracker are given by users of a site, and the administration does not bear the responsibility for their maintenance. The request to not fill in the files protected by copyrights, and also files of the illegal maintenance!

    [Profile] [PM]
    Display posts from previous:    
    Reply to topic

    The time now is: Today 07:57

    All times are GMT + 3 Hours

    You cannot post new topics in this forum
    You cannot reply to topics in this forum
    You cannot edit your posts in this forum
    You cannot delete your posts in this forum
    You cannot vote in polls in this forum
    You cannot attach files in this forum
    You cannot download files in this forum