BitTorrentTracker PerecTracker.org
BitTorrentTracker PerecTracker.org
    
Регистрация  ·  Вход
 
 · 
Забыли пароль?

  • Шиш на кокуй! (Игорь Пушкарев) [1993, комедия, VHSRip]

    Ответить на тему
     
    Автор Сообщение

    rechyn

    Создавать темы 08-Дек-2015 23:10

           

    [Цитировать]

    Шиш на кокуй!Жанр: комедия
    Год выпуска: 1993
    Продолжительность: 01:24:44
    Режиссёр: Игорь Пушкарев
    В ролях: Владимир Трещалов, Игорь Журин, Вадим Завьялов, Тамара Сёмина, Валерий Носик, Екатерина Кмит, Валерий Беляев, Федор Казаков, Игорь Пушкарев, Юрий Саранцев
    Описание: Кокуем русские когда-то называли слободу, заселенную иноземцами. Считалось, что нравы, царящие в таких слободах, не имели ничего общего с русскими национальными обычаями. Таким «Кокуем» и была подмосковная база, расположенная в райском уголке, где каждое утро матрос-спасатель Наташа купалась обнаженной и, возможно, поэтому казалась всем доступной. Мужчины вдруг полюбили утреннюю рыбалку, женщины готовят жуткую расправу, начальство не знает, как предотвратить социальный взрыв…
    Доп. информация: Так как фильм не издавался на ДВД и не реставрировался, качество достаточно среднее. Поэтому перед скачиванием смотрите скриншоты и качайте сэмпл.
    Сэмпл: http://multi-up.com/1026465
    Качество видео: VHSRip
    Формат видео: AVI
    Видео: 576x448 (1.29:1), 23.976 fps, XviD build 47 ~2098 kbps avg, 0.34 bit/pixel
    Аудио: 48 kHz, AC3 Dolby Digital, 2/0 (L,R) ch, ~192 kbps
    Релиз:

    MediaInfo

    Format : AVI
    Format/Info : Audio Video Interleave
    File size : 1.36 GiB
    Duration : 1h 24mn
    Overall bit rate : 2 300 Kbps
    Writing library : VirtualDub build 35491/release
    Video
    ID : 0
    Format : MPEG-4 Visual
    Format profile : Advanced Simple@L5
    Format settings, BVOP : 1
    Format settings, QPel : No
    Format settings, GMC : No warppoints
    Format settings, Matrix : Default (MPEG)
    Codec ID : XVID
    Codec ID/Hint : XviD
    Duration : 1h 24mn
    Bit rate : 2 098 Kbps
    Width : 576 pixels
    Height : 448 pixels
    Display aspect ratio : 1.286
    Frame rate : 23.976 fps
    Color space : YUV
    Chroma subsampling : 4:2:0
    Bit depth : 8 bits
    Scan type : Progressive
    Compression mode : Lossy
    Bits/(Pixel*Frame) : 0.339
    Stream size : 1.24 GiB (91%)
    Writing library : XviD 1.2.0.dev47 (UTC 2006-11-01)
    Audio
    ID : 1
    Format : AC-3
    Format/Info : Audio Coding 3
    Mode extension : CM (complete main)
    Format settings, Endianness : Big
    Codec ID : 2000
    Duration : 1h 24mn
    Bit rate mode : Constant
    Bit rate : 192 Kbps
    Channel(s) : 2 channels
    Channel positions : Front: L R
    Sampling rate : 48.0 KHz
    Bit depth : 16 bits
    Compression mode : Lossy
    Stream size : 116 MiB (8%)
    Alignment : Aligned on interleaves
    Interleave, duration : 42 ms (1.00 video frame)
    Interleave, preload duration : 512 ms

    Скриншот c названием фильма

    Скриншоты



    Скачать .torrent

    Скачать торрент-файл бесплатно и на максимальной скорости!

    Как скачивать? · Что такое торрент? · Рейтинг и ограничения

    !ВНИМАНИЕ!
    Сайт не распространяет и не хранит электронные версии произведений, а занимается лишь лишь предоставлением доступа к создаваемому пользователями каталогу ссылок на торрент-файлы, которые содержат только списки хеш-сумм, убедительная просьба с жалобами обращаться напрямую к пользователю. Файлы для обмена на трекере предоставлены пользователями сайта, и администрация не несёт ответственности за их содержание. Просьба не заливать файлы, защищенные авторскими правами, а также файлы нелегального содержания!


    _________________
    [Профиль] [ЛС]
    Показать сообщения:    
    Ответить на тему

    Текущее время: Сегодня, в 08:02

    Часовой пояс: GMT + 2



    Вы не можете начинать темы
    Вы не можете отвечать на сообщения
    Вы не можете редактировать свои сообщения
    Вы не можете удалять свои сообщения
    Вы не можете голосовать в опросах
    Вы не можете прикреплять файлы к сообщениям
    Вы не можете скачивать файлы