BitTorrentTracker PerecTracker.org
BitTorrentTracker PerecTracker.org
    
Регистрация  ·  Вход
 
 · 
Забыли пароль?

  • Майор (Юрий Быков) [2013, Криминал, драма, BDRip]

    Ответить на тему
     
    Автор Сообщение

    rechyn

    Создавать темы 08-Дек-2015 23:10

           

    [Цитировать]

    Майор
    «Майор - просто человек»
    -Год выпуска: 2013
    Выпущено: Россия / ТПО Рок
    Жанр: криминал, драма
    Продолжительность: 01:39:21-Режиссёр:
    Юрий Быков-В ролях:
    Денис Шведов, Ирина Низина, Юрий Быков, Дмитрий Куличков, Кирилл Полухин, Борис Невзоров, Илья Исаев, Владислав Толдыков, Евгений Кочетков, Павел Басов, Владимир Любовский, Сергей Васильев, Сергей Шипилов, Андрей Гусак, Николай Зазуля, Игорь Гайдаров-Описание:
    В день долгожданных родов своей жены майор полиции Сергей Соболев мчится в роддом вне себя от счастья. На скользкой зимней дороге он насмерть сбивает семилетнего мальчика на глазах у несчастной матери. Превышение скорости, неосторожность и пешеходный переход — доказательства очевидны, как и нежелание молодого отца угодить за решетку. Майор использует свое служебное положение, чтобы оправдать себя… Сам того не желая, он запускает целую череду смертей, остановить которую решится слишком поздно.-Релиз групп
    | | КиноПоиск | Сэмпл |-Качество: BDRip [Blu-Ray Disc]
    Формат: AVI
    Видео: 720x304 (2.37:1), 24.000 fps, XviD build 73 ~1644 kbps avg, 0.31 bit/pixel
    Аудио: 48 kHz, AC3 Dolby Digital, 3/2 (L,C,R,l,r) + LFE ch, ~448.00 kbps avg-

    Скриншоты

    MediaInfo

    General
    Complete name                            : D:\Maior_2013_BDRip_by_Dalemake.avi
    Format                                   : AVI
    Format/Info                              : Audio Video Interleave
    File size                                : 1.46 GiB
    Duration                                 : 1h 39mn
    Overall bit rate                         : 2 102 Kbps
    Writing application                      : VirtualDubMod 1.5.10.3 | www.virtualdub-fr.org || (build 2550/release)
    Writing library                          : VirtualDubMod build 2550/release
    Video
    ID                                       : 0
    Format                                   : MPEG-4 Visual
    Format profile                           : Advanced Simple@L5
    Format settings, BVOP                    : 1
    Format settings, QPel                    : No
    Format settings, GMC                     : No warppoints
    Format settings, Matrix                  : Custom
    Codec ID                                 : XVID
    Codec ID/Hint                            : XviD
    Duration                                 : 1h 39mn
    Bit rate                                 : 1 644 Kbps
    Width                                    : 720 pixels
    Height                                   : 304 pixels
    Display aspect ratio                     : 2.35:1
    Frame rate                               : 24.000 fps
    Color space                              : YUV
    Chroma subsampling                       : 4:2:0
    Bit depth                                : 8 bits
    Scan type                                : Progressive
    Compression mode                         : Lossy
    Bits/(Pixel*Frame)                       : 0.313
    Stream size                              : 1.14 GiB (78%)
    Writing library                          : XviD 73
    Audio
    ID                                       : 1
    Format                                   : AC-3
    Format/Info                              : Audio Coding 3
    Mode extension                           : CM (complete main)
    Format settings, Endianness              : Big
    Codec ID                                 : 2000
    Duration                                 : 1h 39mn
    Bit rate mode                            : Constant
    Bit rate                                 : 448 Kbps
    Channel(s)                               : 6 channels
    Channel positions                        : Front: L C R, Side: L R, LFE
    Sampling rate                            : 48.0 KHz
    Bit depth                                : 16 bits
    Compression mode                         : Lossy
    Stream size                              : 318 MiB (21%)
    Alignment                                : Split accross interleaves
    Interleave, duration                     : 42 ms (1.00 video frame)
    Interleave, preload duration             : 500 ms
    -
    Скачать .torrent

    Скачать торрент-файл бесплатно и на максимальной скорости!

    Как скачивать? · Что такое торрент? · Рейтинг и ограничения

    !ВНИМАНИЕ!
    Сайт не распространяет и не хранит электронные версии произведений, а занимается лишь лишь предоставлением доступа к создаваемому пользователями каталогу ссылок на торрент-файлы, которые содержат только списки хеш-сумм, убедительная просьба с жалобами обращаться напрямую к пользователю. Файлы для обмена на трекере предоставлены пользователями сайта, и администрация не несёт ответственности за их содержание. Просьба не заливать файлы, защищенные авторскими правами, а также файлы нелегального содержания!


    _________________
    [Профиль] [ЛС]
    Показать сообщения:    
    Ответить на тему

    Текущее время: Сегодня, в 14:44

    Часовой пояс: GMT + 2



    Вы не можете начинать темы
    Вы не можете отвечать на сообщения
    Вы не можете редактировать свои сообщения
    Вы не можете удалять свои сообщения
    Вы не можете голосовать в опросах
    Вы не можете прикреплять файлы к сообщениям
    Вы не можете скачивать файлы