Register  ·  Log in
Forgot password?

  • Жить (Юрий Быков) [2010, Триллер, драма, криминал, HDTVRip]

    Reply to topic
    Author Message


    Post 09-Dec-2015 00:10



    «Какой ценой ты готов... Жить...»
    -Год выпуска: 2010
    Выпущено: Россия / ТПО Рок
    Жанр: триллер, драма, криминал
    Продолжительность: 01:11:44-Режиссёр:
    Юрий Быков-В ролях:
    Денис Шведов (Андрей), Владислав Толдыков (Михаил), Алексей Комашко (Сергей), Константин Стрельников (Олег), Сергей Жарков (Иван), Сергей Сосновский (старик), Сергей Беляев (рыбак)-Описание:
    Дикие места. Трое преследуют пожилого охотника и молодого парня. Один — проводник, второй — боец. Незнакомые, чуждые друг другу люди должны вместе выжить и добраться до города. Какова цена жизни? На этот вопрос каждый ответит по-своему.-Релиз групп
    | | КиноПоиск | Сэмпл |-Качество: HDTVRip [HDTV | 1080i]
    Формат: AVI
    Видео: 704x384 (1.83:1), 25 fps, XviD build 73 ~2285 kbps avg, 0.34 bit/pixel
    Аудио: 48 kHz, AC3 Dolby Digital, 3/2 (L,C,R,l,r) + LFE ch, ~448.00 kbps avg-



    Complete name                            : D:\Zhit`_2010_HDTVRip_by_Dalemake.avi
    Format                                   : AVI
    Format/Info                              : Audio Video Interleave
    File size                                : 1.37 GiB
    Duration                                 : 1h 11mn
    Overall bit rate                         : 2 744 Kbps
    Writing application                      : VirtualDubMod | || (build 2550/release)
    Writing library                          : VirtualDubMod build 2550/release
    ID                                       : 0
    Format                                   : MPEG-4 Visual
    Format profile                           : Advanced Simple@L5
    Format settings, BVOP                    : 2
    Format settings, QPel                    : No
    Format settings, GMC                     : No warppoints
    Format settings, Matrix                  : Custom
    Codec ID                                 : XVID
    Codec ID/Hint                            : XviD
    Duration                                 : 1h 11mn
    Bit rate                                 : 2 286 Kbps
    Width                                    : 704 pixels
    Height                                   : 384 pixels
    Display aspect ratio                     : 1.85:1
    Frame rate                               : 25.000 fps
    Color space                              : YUV
    Chroma subsampling                       : 4:2:0
    Bit depth                                : 8 bits
    Scan type                                : Progressive
    Compression mode                         : Lossy
    Bits/(Pixel*Frame)                       : 0.338
    Stream size                              : 1.15 GiB (83%)
    Writing library                          : XviD 73
    ID                                       : 1
    Format                                   : AC-3
    Format/Info                              : Audio Coding 3
    Mode extension                           : CM (complete main)
    Format settings, Endianness              : Big
    Codec ID                                 : 2000
    Duration                                 : 1h 11mn
    Bit rate mode                            : Constant
    Bit rate                                 : 448 Kbps
    Channel(s)                               : 6 channels
    Channel positions                        : Front: L C R, Side: L R, LFE
    Sampling rate                            : 48.0 KHz
    Bit depth                                : 16 bits
    Compression mode                         : Lossy
    Stream size                              : 230 MiB (16%)
    Alignment                                : Split accross interleaves
    Interleave, duration                     : 40 ms (1.00 video frame)
    Interleave, preload duration             : 500 ms

    Сравнение - разная цветопередача, у HDTV лучше детализация, но есть логотип...
    Прошу оставить оба рипа
    Download .torrent

    Download free and at maximum speed!

    How to Download? · What is a torrent? · Ratings and Limitations

    The site does not extend and does not store electronic(digital) versions of products, and only gives access to a reference catalogue created by users on torrent-files which contain only lists of the hash-sums, the earnest entreaty, with complaints(abuse) to access directly to the user. Files for an exchange on tracker are given by users of a site, and the administration does not bear the responsibility for their maintenance. The request to not fill in the files protected by copyrights, and also files of the illegal maintenance!

    [Profile] [PM]
    Display posts from previous:    
    Reply to topic

    The time now is: Today 19:08

    All times are GMT + 3 Hours

    You cannot post new topics in this forum
    You cannot reply to topics in this forum
    You cannot edit your posts in this forum
    You cannot delete your posts in this forum
    You cannot vote in polls in this forum
    You cannot attach files in this forum
    You cannot download files in this forum