Register  ·  Log in
Forgot password?

  • Нечаянно (Жора Крыжовников) [2014, короткометражка, черная комедия, WEB-DLRip]

    Reply to topic
    Author Message


    Post 09-Dec-2015 00:10



    Жанр: короткометражка, черная комедия
    Год выпуска: 2014
    Продолжительность: 00:20:33
    Режиссёр: Жора Крыжовников
    В ролях: Тимофей Трибунцев, Юлия Александрова, Александр Паль, Наталия Потапова, Юрий Кузнецов (VI), Галина Стаханова, Сергей Лавыгин
    Описание: Рассказ о приключениях одной семьи в новогоднюю ночь, когда веселый ход празднества нарушает непреднамеренное убийство.
    Доп. информация: Раздача от группы

    Качество видео: WEB-DLRip
    Формат видео: AVI
    Видео: XviD, 720x304 (2.37:1), 25 fps, 1196 kbps avg, 0.22 bit/pixel
    Аудио: Русский, МР3, 48 kHz, 128.00 kbps, 2 ch


    Полное имя : F:\RT\Nechajanno.2014.WEBDLRip.avi
    Формат : AVI
    Формат/Информация : Audio Video Interleave
    Размер файла : 197 Мбайт
    Продолжительность : 20 м.
    Общий поток : 1338 Кбит/сек
    Программа кодирования : Lavf52.39.1
    Идентификатор : 0
    Формат : xvid
    Идентификатор кодека : xvid
    Продолжительность : 20 м.
    Битрейт : 1197 Кбит/сек
    Ширина : 720 пикселей
    Высота : 304 пикселя
    Соотношение сторон : 2,35:1
    Частота кадров : 25,000 кадров/сек
    Бит/(Пиксели*Кадры) : 0.219
    Размер потока : 176 Мбайт (89%)
    Идентификатор : 1
    Формат : MPEG Audio
    Версия формата : Version 1
    Профиль формата : Layer 3
    Режим : Joint stereo
    Расширение режима : MS Stereo
    Идентификатор кодека : 55
    Идентификатор кодека/Подсказка : MP3
    Продолжительность : 20 м.
    Вид битрейта : Постоянный
    Битрейт : 128 Кбит/сек
    Каналы : 2 канала
    Частота : 48,0 КГц
    Метод сжатия : С потерями
    Размер потока : 18,8 Мбайт (10%)
    Выравнивание : Соединение по промежуткам
    Продолжительность промежутка : 24 мс. (0,60 видеокадр)
    Время предзагрузки промежутка : 24 мс.
    Библиотека кодирования : LAME3.96.1
    Скриншот c названием фильма

    скрытый текст


    Download .torrent

    Download free and at maximum speed!

    How to Download? · What is a torrent? · Ratings and Limitations

    The site does not extend and does not store electronic(digital) versions of products, and only gives access to a reference catalogue created by users on torrent-files which contain only lists of the hash-sums, the earnest entreaty, with complaints(abuse) to access directly to the user. Files for an exchange on tracker are given by users of a site, and the administration does not bear the responsibility for their maintenance. The request to not fill in the files protected by copyrights, and also files of the illegal maintenance!

    [Profile] [PM]
    Display posts from previous:    
    Reply to topic

    The time now is: Today 13:11

    All times are GMT + 3 Hours

    You cannot post new topics in this forum
    You cannot reply to topics in this forum
    You cannot edit your posts in this forum
    You cannot delete your posts in this forum
    You cannot vote in polls in this forum
    You cannot attach files in this forum
    You cannot download files in this forum