BitTorrentTracker PerecTracker.org
BitTorrentTracker PerecTracker.org
    
Регистрация  ·  Вход
 
 · 
Забыли пароль?

  • Нечаянно (Жора Крыжовников) [2014, короткометражка, черная комедия, WEB-DLRip]

    Ответить на тему
     
    Автор Сообщение

    rechyn

    Создавать темы 08-Дек-2015 23:10

           

    [Цитировать]

    Нечаянно
    Жанр: короткометражка, черная комедия
    Год выпуска: 2014
    Продолжительность: 00:20:33
    Режиссёр: Жора Крыжовников
    В ролях: Тимофей Трибунцев, Юлия Александрова, Александр Паль, Наталия Потапова, Юрий Кузнецов (VI), Галина Стаханова, Сергей Лавыгин
    Описание: Рассказ о приключениях одной семьи в новогоднюю ночь, когда веселый ход празднества нарушает непреднамеренное убийство.
    Доп. информация: Раздача от группы

    Сэмпл: http://sendfile.su/1077296
    Качество видео: WEB-DLRip
    Формат видео: AVI
    Видео: XviD, 720x304 (2.37:1), 25 fps, 1196 kbps avg, 0.22 bit/pixel
    Аудио: Русский, МР3, 48 kHz, 128.00 kbps, 2 ch

    MediaInfo

    Общее
    Полное имя : F:\RT\Nechajanno.2014.WEBDLRip.avi
    Формат : AVI
    Формат/Информация : Audio Video Interleave
    Размер файла : 197 Мбайт
    Продолжительность : 20 м.
    Общий поток : 1338 Кбит/сек
    Программа кодирования : Lavf52.39.1
    Видео
    Идентификатор : 0
    Формат : xvid
    Идентификатор кодека : xvid
    Продолжительность : 20 м.
    Битрейт : 1197 Кбит/сек
    Ширина : 720 пикселей
    Высота : 304 пикселя
    Соотношение сторон : 2,35:1
    Частота кадров : 25,000 кадров/сек
    Бит/(Пиксели*Кадры) : 0.219
    Размер потока : 176 Мбайт (89%)
    Аудио
    Идентификатор : 1
    Формат : MPEG Audio
    Версия формата : Version 1
    Профиль формата : Layer 3
    Режим : Joint stereo
    Расширение режима : MS Stereo
    Идентификатор кодека : 55
    Идентификатор кодека/Подсказка : MP3
    Продолжительность : 20 м.
    Вид битрейта : Постоянный
    Битрейт : 128 Кбит/сек
    Каналы : 2 канала
    Частота : 48,0 КГц
    Метод сжатия : С потерями
    Размер потока : 18,8 Мбайт (10%)
    Выравнивание : Соединение по промежуткам
    Продолжительность промежутка : 24 мс. (0,60 видеокадр)
    Время предзагрузки промежутка : 24 мс.
    Библиотека кодирования : LAME3.96.1
    Скриншот c названием фильма

    скрытый текст

    Скриншоты

    Скачать .torrent

    Скачать торрент-файл бесплатно и на максимальной скорости!

    Как скачивать? · Что такое торрент? · Рейтинг и ограничения

    !ВНИМАНИЕ!
    Сайт не распространяет и не хранит электронные версии произведений, а занимается лишь лишь предоставлением доступа к создаваемому пользователями каталогу ссылок на торрент-файлы, которые содержат только списки хеш-сумм, убедительная просьба с жалобами обращаться напрямую к пользователю. Файлы для обмена на трекере предоставлены пользователями сайта, и администрация не несёт ответственности за их содержание. Просьба не заливать файлы, защищенные авторскими правами, а также файлы нелегального содержания!


    _________________
    [Профиль] [ЛС]
    Показать сообщения:    
    Ответить на тему

    Текущее время: Сегодня, в 18:46

    Часовой пояс: GMT + 2



    Вы не можете начинать темы
    Вы не можете отвечать на сообщения
    Вы не можете редактировать свои сообщения
    Вы не можете удалять свои сообщения
    Вы не можете голосовать в опросах
    Вы не можете прикреплять файлы к сообщениям
    Вы не можете скачивать файлы