Register  ·  Log in
Forgot password?

  • Храни ее, любовь (Сергей Винокуров) [2014, Мелодрама, криминал, HDTVRip]

    Reply to topic
    Author Message


    Post 09-Dec-2015 00:10



    Храни ее, любовьЖанр: Мелодрама, криминал
    Год выпуска: 2014
    Выпущено: Паламеда продакшн
    Продолжительность: 01:30:30
    Режиссёр: Сергей Винокуров
    В ролях:Анна Арефьева, Евгений Добряков, Анна Миклош, Юлия Кудояр, Юрий Чулков
    Описание: Принимая решение на полчаса подменить сестру Катю, бухгалтера благотворительного фонда, Зоя не догадывается, что очень скоро ее жизни будет угрожать реальная опасность: грабители нацелились на деньги фонда.
    Качество видео: HDTVRip
    Формат видео: AVI
    Видео: 720x400 (1.80:1), 25 fps, DivX Codec 5.x or 6.x ~2009 kbps avg, 0.28 bit/pixel
    Аудио: 48 kHz, MPEG Layer 3, 2 ch, ~128.00 kbps avg


    Format : AVI
    Format/Info : Audio Video Interleave
    Format profile : OpenDML
    File size : 1.36 GiB
    Duration : 1h 31mn
    Overall bit rate : 2 145 Kbps
    ID : 0
    Format : MPEG-4 Visual
    Format settings, BVOP : Yes
    Format settings, QPel : No
    Format settings, GMC : No warppoints
    Format settings, Matrix : Default (H.263)
    Codec ID : DX50
    Codec ID/Hint : DivX 5
    Duration : 1h 31mn
    Bit rate : 2 000 Kbps
    Width : 720 pixels
    Height : 400 pixels
    Display aspect ratio : 16:9
    Frame rate : 25.000 fps
    Color space : YUV
    Chroma subsampling : 4:2:0
    Bit depth : 8 bits
    Scan type : Progressive
    Compression mode : Lossy
    Bits/(Pixel*Frame) : 0.278
    Stream size : 1.27 GiB (93%)
    Writing library : Intel(R) MPEG-4 encoder based on Intel(R) IPP 6.1 build 137.20[]
    ID : 1
    Format : MPEG Audio
    Format version : Version 1
    Format profile : Layer 3
    Mode : Joint stereo
    Mode extension : MS Stereo
    Codec ID : 55
    Codec ID/Hint : MP3
    Duration : 1h 31mn
    Bit rate mode : Constant
    Bit rate : 128 Kbps
    Channel(s) : 2 channels
    Sampling rate : 48.0 KHz
    Compression mode : Lossy
    Stream size : 83.4 MiB (6%)
    Alignment : Aligned on interleaves
    Interleave, duration : 24 ms (0.60 video frame)
    Writing library : LAME3.98.2

    Скриншот c названием фильма


    Download .torrent

    Download free and at maximum speed!

    How to Download? · What is a torrent? · Ratings and Limitations

    The site does not extend and does not store electronic(digital) versions of products, and only gives access to a reference catalogue created by users on torrent-files which contain only lists of the hash-sums, the earnest entreaty, with complaints(abuse) to access directly to the user. Files for an exchange on tracker are given by users of a site, and the administration does not bear the responsibility for their maintenance. The request to not fill in the files protected by copyrights, and also files of the illegal maintenance!

    [Profile] [PM]
    Display posts from previous:    
    Reply to topic

    The time now is: Today 11:58

    All times are GMT + 3 Hours

    You cannot post new topics in this forum
    You cannot reply to topics in this forum
    You cannot edit your posts in this forum
    You cannot delete your posts in this forum
    You cannot vote in polls in this forum
    You cannot attach files in this forum
    You cannot download files in this forum