BitTorrentTracker PerecTracker.org
BitTorrentTracker PerecTracker.org
    
Регистрация  ·  Вход
 
 · 
Забыли пароль?

  • Храни её, любовь (Сергей Винокуров) [2014, Мелодрама, криминал, HDTVRip]

    Ответить на тему
     
    Автор Сообщение

    rechyn

    Создавать темы 08-Дек-2015 23:10

           

    [Цитировать]

    Храни её, любовь
    Жанр: Мелодрама, криминал
    Год выпуска: 2014
    Продолжительность: 01:30:49
    Режиссёр: Сергей Винокуров
    В ролях: Анна Арефьева, Евгений Добряков, Анна Миклош, Юлия Кудояр, Юрий Чулков
    Описание: Принимая решение на полчаса подменить сестру Катю, бухгалтера благотворительного фонда, Зоя не догадывается, что очень скоро ее жизни будет угрожать реальная опасность: грабители нацелились на деньги фонда. Девушку спасает человек по имени Илья. Сам он серьезно ранен. А ведь пуля предназначалась не ему. Зоя хочет теперь только одного: чтобы молодой человек поправился, но получает сообщение, что его больше нет. Однако оказывается, что Илья жив и, конечно, ищет Зою...

    Качество видео: HDTVRip [Исходник: HDTV (1080i) от MediaClub]
    Формат видео: AVI
    Видео: XviD, 656x368 (16:9), 1012 Кбит/с, 25 кадр/с
    Аудио: Русский, MP3, 48000 Гц, 128 Кбит/с, 2 канала (Стерео)

    Автор рипа - ivandubskoj

    MediaInfo

    General
    Complete name : Hrani.ee.lyubov'.2014.HDTVRip.745MB.avi
    Format : AVI
    Format/Info : Audio Video Interleave
    File size : 747 MiB
    Duration : 1h 30mn
    Overall bit rate : 1 149 Kbps
    Writing application : VirtualDubMod 1.5.10.3 (build 2550/release)
    Writing library : VirtualDubMod build 2550/release
    Copyright : rip by ivandubskoj
    Video
    ID : 0
    Format : MPEG-4 Visual
    Format profile : Advanced Simple@L5
    Format settings, BVOP : 2
    Format settings, QPel : No
    Format settings, GMC : No warppoints
    Format settings, Matrix : Custom
    Codec ID : XVID
    Codec ID/Hint : XviD
    Duration : 1h 30mn
    Bit rate : 1 012 Kbps
    Width : 656 pixels
    Height : 368 pixels
    Display aspect ratio : 16:9
    Frame rate : 25.000 fps
    Color space : YUV
    Chroma subsampling : 4:2:0
    Bit depth : 8 bits
    Scan type : Progressive
    Compression mode : Lossy
    Bits/(Pixel*Frame) : 0.168
    Stream size : 657 MiB (88%)
    Writing library : XviD 73
    Audio
    ID : 1
    Format : MPEG Audio
    Format version : Version 1
    Format profile : Layer 3
    Codec ID : 55
    Codec ID/Hint : MP3
    Duration : 1h 30mn
    Bit rate mode : Constant
    Bit rate : 128 Kbps
    Channel(s) : 2 channels
    Sampling rate : 48.0 KHz
    Compression mode : Lossy
    Stream size : 83.2 MiB (11%)
    Alignment : Aligned on interleaves
    Interleave, duration : 40 ms (1.00 video frame)
    Interleave, preload duration : 504 ms
    Writing library : LAME3.99r
    Encoding settings : -m s -V 4 -q 0 -lowpass 17 -b 128

    Скриншот c названием фильма

    Скриншоты

    Скачать .torrent

    Скачать торрент-файл бесплатно и на максимальной скорости!

    Как скачивать? · Что такое торрент? · Рейтинг и ограничения

    !ВНИМАНИЕ!
    Сайт не распространяет и не хранит электронные версии произведений, а занимается лишь лишь предоставлением доступа к создаваемому пользователями каталогу ссылок на торрент-файлы, которые содержат только списки хеш-сумм, убедительная просьба с жалобами обращаться напрямую к пользователю. Файлы для обмена на трекере предоставлены пользователями сайта, и администрация не несёт ответственности за их содержание. Просьба не заливать файлы, защищенные авторскими правами, а также файлы нелегального содержания!


    _________________
    [Профиль] [ЛС]
    Показать сообщения:    
    Ответить на тему

    Текущее время: Сегодня, в 23:20

    Часовой пояс: GMT + 2



    Вы не можете начинать темы
    Вы не можете отвечать на сообщения
    Вы не можете редактировать свои сообщения
    Вы не можете удалять свои сообщения
    Вы не можете голосовать в опросах
    Вы не можете прикреплять файлы к сообщениям
    Вы не можете скачивать файлы