BitTorrentTracker PerecTracker.org
BitTorrentTracker PerecTracker.org
    
Регистрация  ·  Вход
 
 · 
Забыли пароль?

  • Перелетные пташки (Игорь Нурисламов) [2014, Мелодрама, WEB-DLRip]

    Ответить на тему
     
    Автор Сообщение

    rechyn

    Создавать темы 08-Дек-2015 23:10

           

    [Цитировать]

    Перелeтные пташкиЖанр: Мелодрама
    Год выпуска: 2014
    Выпущено: Land Cinema
    Продолжительность: 2 x 00:45:00
    Режиссёр: Игорь Нурисламов
    В ролях:Инга Оболдина, Наталия Варфоломеева, Елизавета Васильева (II), Ян Цапник, Александр Большаков, Артём Яковлев (II), Мария Мясникова, Наталья Щербакова, Татьяна Полонская, Светлана Селезнёва
    Описание: Возможно, экстравагантная Марина, привыкшая жить, как хочет и без сожаления «сжигать мосты», так и порхала бы из города в город, с чемоданами и двумя дочерьми, но старшей - уже пятнадцать. Девушка впервые влюбилась и тут же влипла в опасную историю. С ужасом Марина видит в дочери себя и не хочет повторения своей судьбы. Ведь за роскошным фасадом сильной женщины скрывается боль, одиночество, боязнь серьезных отношений. Марина готова пересмотреть свою жизненную позицию. В трудную минуту рядом оказывается мужчина. Он совсем не похож не принца, но Марина решает попробовать построить отношения. Строить оказывается сложнее, чем разрушать, да и поверить в сорок лет сложнее - чем в пятнадцать...
    Качество видео: WEB-DLRip
    Формат видео: AVI
    СЭМПЛ
    Видео:720x400 (1.80:1), 25 fps, XviD build 73 ~1465 kbps avg, 0.20 bit/pixel
    Аудио: 48 kHz, AC3 Dolby Digital, 2/0 (L,R) ch, ~192 kbps

    MediaInfo

    Format : AVI
    Format/Info : Audio Video Interleave
    File size : 550 MiB
    Duration : 46mn 7s
    Overall bit rate : 1 668 Kbps
    Writing application : VirtualDubMod 1.5.10.3 | www.virtualdub-fr.org || (build 2550/release)
    Writing library : VirtualDubMod build 2550/release
    Video
    ID : 0
    Format : MPEG-4 Visual
    Format profile : Advanced Simple@L5
    Format settings, BVOP : 1
    Format settings, QPel : No
    Format settings, GMC : No warppoints
    Format settings, Matrix : Custom
    Codec ID : XVID
    Codec ID/Hint : XviD
    Duration : 46mn 7s
    Bit rate : 1 466 Kbps
    Width : 720 pixels
    Height : 400 pixels
    Display aspect ratio : 16:9
    Frame rate : 25.000 fps
    Color space : YUV
    Chroma subsampling : 4:2:0
    Bit depth : 8 bits
    Scan type : Progressive
    Compression mode : Lossy
    Bits/(Pixel*Frame) : 0.204
    Stream size : 484 MiB (88%)
    Writing library : XviD 73
    Audio
    ID : 1
    Format : AC-3
    Format/Info : Audio Coding 3
    Mode extension : CM (complete main)
    Format settings, Endianness : Big
    Codec ID : 2000
    Duration : 46mn 7s
    Bit rate mode : Constant
    Bit rate : 192 Kbps
    Channel(s) : 2 channels
    Channel positions : Front: L R
    Sampling rate : 48.0 KHz
    Bit depth : 16 bits
    Compression mode : Lossy
    Stream size : 63.3 MiB (12%)
    Alignment : Split accross interleaves
    Interleave, duration : 40 ms (1.00 video frame)
    Interleave, preload duration : 500 ms

    Скриншот c названием фильма

    Скриншоты

    Скачать .torrent

    Скачать торрент-файл бесплатно и на максимальной скорости!

    Как скачивать? · Что такое торрент? · Рейтинг и ограничения

    !ВНИМАНИЕ!
    Сайт не распространяет и не хранит электронные версии произведений, а занимается лишь лишь предоставлением доступа к создаваемому пользователями каталогу ссылок на торрент-файлы, которые содержат только списки хеш-сумм, убедительная просьба с жалобами обращаться напрямую к пользователю. Файлы для обмена на трекере предоставлены пользователями сайта, и администрация не несёт ответственности за их содержание. Просьба не заливать файлы, защищенные авторскими правами, а также файлы нелегального содержания!


    _________________
    [Профиль] [ЛС]
    Показать сообщения:    
    Ответить на тему

    Текущее время: Сегодня, в 15:53

    Часовой пояс: GMT + 2



    Вы не можете начинать темы
    Вы не можете отвечать на сообщения
    Вы не можете редактировать свои сообщения
    Вы не можете удалять свои сообщения
    Вы не можете голосовать в опросах
    Вы не можете прикреплять файлы к сообщениям
    Вы не можете скачивать файлы