BitTorrentTracker PerecTracker.org
BitTorrentTracker PerecTracker.org
    
Регистрация  ·  Вход
 
 · 
Забыли пароль?

  • Экскурсантка (Аудриус Юзенас) [2013, Исторический, драма, DVDRip]

    Ответить на тему
     
    Автор Сообщение

    rechyn

    Создавать темы 08-Дек-2015 23:10

           

    [Цитировать]

    Экскурсантка / Ekskursantė
    Жанр: Исторический / Драма
    Год выпуска: 2013
    Продолжительность: 01:49:58
    Режиссёр: Аудриус Юзeнас
    В ролях: Сергей Гармаш, Дмитрий Готсдинер, Аирида Гинтаутаите, Алёна Ивченко, Анастасия Марценкаите, Ксения Раппопорт, Раиса Рязанова, Дариус Мескаускас, Егле Микулионыте
    Описание: Трагическая история литовской Дюймовочки — девочки Марии, сосланной из своей деревни с родителями в Сибирь, оставшейся по дороге сиротой, но сумевшей пешком, через всю Россию, вернуться домой.
    Доп. информация: imdb:
    КиноПоиск.ru:
    Сэмпл: http://multi-up.com/1029235
    Cубтитры: русские, литовскиe (вшитыe)
    Оригинальная аудиодорожка: русский, литовский
    Качество видео: DVDRip
    Формат видео: AVI
    Видео: MPEG4, XviD, 720x384 (1.875), 25.000 fps, 1 490 Kbps (0.216 bit/pixel)
    Аудио: Russian,Lithuanian AC-3, 48.0 KHz, 6 ch, 384 Kbps, CBR

    MediaInfo

    {hide=file:} Video
    ID : 0
    Format : MPEG-4 Visual
    Format profile : Simple@L5
    Format settings, BVOP : No
    Format settings, QPel : No
    Format settings, GMC : No warppoints
    Format settings, Matrix : Default (H.263)
    Codec ID : XVID
    Codec ID/Hint : XviD
    Duration : 1h 50mn
    Bit rate : 1 171 Kbps
    Width : 720 pixels
    Height : 384 pixels
    Display aspect ratio : 16:9
    Frame rate : 23.976 fps
    Color space : YUV
    Chroma subsampling : 4:2:0
    Bit depth : 8 bits
    Scan type : Progressive
    Compression mode : Lossy
    Bits/(Pixel*Frame) : 0.170
    Stream size : 794 MiB (85%)
    Writing library : Lavc56.13.100
    Audio
    ID : 1
    Format : MPEG Audio
    Format version : Version 1
    Format profile : Layer 3
    Mode : Joint stereo
    Codec ID : 55
    Codec ID/Hint : MP3
    Duration : 1h 50mn
    Bit rate mode : Constant
    Bit rate : 384 Kbps
    Channel(s) : 6 channels
    Sampling rate : 48.0 KHz
    Compression mode : Lossy
    Stream size : 130 MiB (14%)
    Alignment : Aligned on interleaves
    Interleave, duration : 24 ms (0.58 video frame)
    Interleave, preload duration : 504 ms
    Writing library : LAME

    Скриншот c названием фильма

    Скриншоты



    -
    Сообщения из этой темы [145 шт.] были выделены в отдельную тему Выделено из: Экскурсантка (Аудриус Юзенас) [2013, Исторический, драма, DVDRip] [4924288]
    cedr
    Скачать .torrent

    Скачать торрент-файл бесплатно и на максимальной скорости!

    Как скачивать? · Что такое торрент? · Рейтинг и ограничения

    !ВНИМАНИЕ!
    Сайт не распространяет и не хранит электронные версии произведений, а занимается лишь лишь предоставлением доступа к создаваемому пользователями каталогу ссылок на торрент-файлы, которые содержат только списки хеш-сумм, убедительная просьба с жалобами обращаться напрямую к пользователю. Файлы для обмена на трекере предоставлены пользователями сайта, и администрация не несёт ответственности за их содержание. Просьба не заливать файлы, защищенные авторскими правами, а также файлы нелегального содержания!


    _________________
    [Профиль] [ЛС]
    Показать сообщения:    
    Ответить на тему

    Текущее время: Сегодня, в 16:43

    Часовой пояс: GMT + 2



    Вы не можете начинать темы
    Вы не можете отвечать на сообщения
    Вы не можете редактировать свои сообщения
    Вы не можете удалять свои сообщения
    Вы не можете голосовать в опросах
    Вы не можете прикреплять файлы к сообщениям
    Вы не можете скачивать файлы