BitTorrentTracker PerecTracker.org
BitTorrentTracker PerecTracker.org
    
Регистрация  ·  Вход
 
 · 
Забыли пароль?

  • Любовь в большом городе (Марюс Вайсберг) [2009 г., Россия, Украина, комедия, мелодрама, фэнтези, BDRip]

    Ответить на тему
     
    Автор Сообщение

    rechyn

    Создавать темы 08-Дек-2015 23:10

           

    [Цитировать]

    Любовь в большом городе-«A 'Very' Romantic Comedy»-
    Год выпуска: 2009
    Страна: Россия, Украина
    Жанр: комедия, мелодрама, фэнтези
    Продолжительность: 01:27:53-Режиссер: Марюс Вайсберг-В ролях: Вера Брежнева (Катя), Алексей Чадов (Артем), Настя Задорожная (Алиса), Светлана Ходченкова (Анастасия Игоревна Коршун), Вилле Хаапасало (Сауна), Владимир Зеленский (Игорь), Филипп Киркоров (Валентин), Олеся Железняк (Пелагея), Алика Смехова (Раиса), Лиза Арзамасова (Вера), Фиона Кучина (симпатичная девушка в автобусе), Снежана Чернова (девушка в автобусе №1)-Описание: Действие фильма происходит в одном из самых романтичных мегаполисов мира - Нью-Йорке. Три друга Артем, Игорь и Оле, настоящий «русский» финн, в народе «Сауна» работают на чужбине, а в свободное от работы время отрываются, «как взрослые»: ходят в сауну, в стриптиз-бары, крутят короткие и ни к чему не обязывающие романы. Секс для них давно превратился в забег на короткие дистанции, соблазненные женщины - в трофеи, а триумфальные победы - главная тема обсуждения во время каждого мальчишника...
    Но однажды случай вмешивается в их устоявшуюся, беспечную, разгильдяйскую жизнь... На очередной вечеринке в одном из клубов человек странного вида поднимает бокал и произносит тост. Пройдет совсем немного времени, и все трое обнаружат пренеприятнейшую перемену - они больше не могут заниматься сексом.
    Как вернуть мужскую силу? Корень женьшеня? Виагра? Тайский массаж? Консультации сексопатолога? Ничто не спасает. За что? Почему? И почему так рано? И почему именно мы? С этими вопросами наши герои в отчаянии бегают по специалистам...
    В конце концов, они находят того самого человека с вечеринки, и выясняют, что тот, применив свои мистические способности, «закодировал» их от беспорядочных связей. Их спасет только одно средство. Любовь. И секс будет. Но только с любимой женщиной. Осталось дело за малым - найти ее...-Автор рипа: Mr. Eko- -Качество: BDRip (Blu-ray Disc/1080p)
    Формат: AVI
    Видео: 720x304 (2.37:1), 23.976 fps, XviD build 66 ~1911 kbps avg, 0.36 bit/pixel
    Аудио: 48 kHz, AC3 Dolby Digital, 3/2 (L,C,R,l,r) + LFE ch, ~448 kbps
    Размер: 1489.41 Mb (1/3 DVD5)
    -

    MediaInfo

    General
    Complete name                            : C:\Downloads\Lyubov.V.Bolshom.Gorode.2009.RUS.BDRip.XviD.AC3.-Mr.Eko.avi
    Format                                   : AVI
    Format/Info                              : Audio Video Interleave
    File size                                : 1.45 GiB
    Duration                                 : 1h 27mn
    Overall bit rate                         : 2 369 Kbps
    Movie name                               : Любовь в большом городе (2009)
    Director                                 : Mr. Eko (Blu-ray Disc)
    Writing application                      : VirtualDubMod 1.5.10.2 (build 2542/release)
    Video
    ID                                       : 0
    Format                                   : MPEG-4 Visual
    Format profile                           : Advanced Simple@L5
    Format settings, BVOP                    : 2
    Format settings, QPel                    : No
    Format settings, GMC                     : No warppoints
    Format settings, Matrix                  : Custom
    Codec ID                                 : XVID
    Codec ID/Hint                            : XviD
    Duration                                 : 1h 27mn
    Bit rate                                 : 1 912 Kbps
    Width                                    : 720 pixels
    Height                                   : 304 pixels
    Display aspect ratio                     : 2.35:1
    Frame rate                               : 23.976 fps
    Color space                              : YUV
    Chroma subsampling                       : 4:2:0
    Bit depth                                : 8 bits
    Scan type                                : Progressive
    Compression mode                         : Lossy
    Bits/(Pixel*Frame)                       : 0.364
    Stream size                              : 1.17 GiB (81%)
    Writing library                          : XviD 66
    Audio
    ID                                       : 1
    Format                                   : AC-3
    Format/Info                              : Audio Coding 3
    Mode extension                           : CM (complete main)
    Format settings, Endianness              : Big
    Codec ID                                 : 2000
    Duration                                 : 1h 27mn
    Bit rate mode                            : Constant
    Bit rate                                 : 448 Kbps
    Channel(s)                               : 6 channels
    Channel positions                        : Front: L C R, Side: L R, LFE
    Sampling rate                            : 48.0 KHz
    Bit depth                                : 16 bits
    Compression mode                         : Lossy
    Stream size                              : 282 MiB (19%)
    Alignment                                : Split accross interleaves
    Interleave, duration                     : 42 ms (1.00 video frame)
    Interleave, preload duration             : 500 ms
    Title                                    : RUS

    -

    Сравнение

    Сравнение с этой раздачей.

    -

    Скриншот c названием фильма


    -

    Скриншоты


    -
    Скачать .torrent

    Скачать торрент-файл бесплатно и на максимальной скорости!

    Как скачивать? · Что такое торрент? · Рейтинг и ограничения

    !ВНИМАНИЕ!
    Сайт не распространяет и не хранит электронные версии произведений, а занимается лишь лишь предоставлением доступа к создаваемому пользователями каталогу ссылок на торрент-файлы, которые содержат только списки хеш-сумм, убедительная просьба с жалобами обращаться напрямую к пользователю. Файлы для обмена на трекере предоставлены пользователями сайта, и администрация не несёт ответственности за их содержание. Просьба не заливать файлы, защищенные авторскими правами, а также файлы нелегального содержания!


    _________________
    [Профиль] [ЛС]
    Показать сообщения:    
    Ответить на тему

    Текущее время: Сегодня, в 08:42

    Часовой пояс: GMT + 2



    Вы не можете начинать темы
    Вы не можете отвечать на сообщения
    Вы не можете редактировать свои сообщения
    Вы не можете удалять свои сообщения
    Вы не можете голосовать в опросах
    Вы не можете прикреплять файлы к сообщениям
    Вы не можете скачивать файлы