BitTorrentTracker PerecTracker.org
BitTorrentTracker PerecTracker.org
    
Регистрация  ·  Вход
 
 · 
Забыли пароль?

  • Дух (Евгений Иванов (II)) [1998, Драма, боевик, SATRip]

    Ответить на тему
     
    Автор Сообщение

    rechyn

    Создавать темы 08-Дек-2015 23:10

           

    [Цитировать]

    Дух
    Жанр: Драма , боевик
    Год выпуска: 1998
    Продолжительность: 1:39:01
    Режиссёр: Евгений Иванов (II)
    В ролях: Максим Леонидов, Игорь Черневич, Ксения Качалина, Лев Елисеев, Андрей Толубеев, Николай Лавров, Юрий Кузнецов, Анатолий Азо, Себастьян Брандт, Сергей Ким, Александр Солянин, Андрей Александров, Эдуард Арциховский, Виктор Бычков, Александр Баранов (III), Владимир Ершов (II), Татьяна Захарова, Сергей Исавнин, Геннадий Свирь, Владимир Севостьянихин, Анатолий Сливников, Сергей Твердохлебов, Борис Чердынцев, Татьяна Шапиро
    Описание: Трагические обстоятельства привели Духа, бывшего "афганца", в тюремную камеру, где он оказался один на один с немецким бароном Максимилианом фон Штольцем. Дух когда-то жил у моря, в доме, где были женщина и ребенок. Служил десантником в Афганистане. Неведомые пути привели его в уголовный мир, на его счету - 11 убийств, перспектива - высшая мера наказания. Макс, обладая неукротимой тягой к перемене мест, авантюрам и алкоголю, был склонен к неожиданным поступкам. Полет на легком самолете в Россию закончился арестом нетрезвого "летчика". Сокамерники почувствовали друг в друге что-то общее: оба стали заложниками собственных характеров и непреодолимого стремления к бунту...
    Доп. информация: Производство: Ленфильм, Центр
    Сэмпл: https://www.sendspace.com/file/mrgsrn
    Качество видео: SATRip
    Формат видео: AVI
    Видео: XviD MPEG-4 , 720x480 (1.50:1) , 25 fps ,1 902 Kbps
    Аудио: AC3 , 48 kHz , 192.00 kbps avg , 2/0 (L,R) ch

    MediaInfo

    Complete name Дух 1998.avi
    Format : AVI
    Format/Info : Audio Video Interleave
    File size : 1.46 GiB
    Duration : 1h 39mn
    Overall bit rate : 2 104 Kbps
    Writing library : VirtualDub build 35491/release
    Video
    ID : 0
    Format : MPEG-4 Visual
    Format profile : Advanced Simple@L5
    Format settings, BVOP : 2
    Format settings, QPel : No
    Format settings, GMC : No warppoints
    Format settings, Matrix : Default (H.263)
    Codec ID : XVID
    Codec ID/Hint : XviD
    Duration : 1h 39mn
    Bit rate : 1 902 Kbps
    Width : 720 pixels
    Height : 480 pixels
    Display aspect ratio : 3:2
    Frame rate : 25.000 fps
    Standard : NTSC
    Color space : YUV
    Chroma subsampling : 4:2:0
    Bit depth : 8 bits
    Scan type : Progressive
    Compression mode : Lossy
    Bits/(Pixel*Frame) : 0.220
    Stream size : 1.32 GiB (90%)
    Writing library : XviD 1.2.1 (UTC 2008-12-04)
    Audio
    ID : 1
    Format : AC-3
    Format/Info : Audio Coding 3
    Mode extension : CM (complete main)
    Format settings, Endianness : Big
    Codec ID : 2000
    Duration : 1h 39mn
    Bit rate mode : Constant
    Bit rate : 192 Kbps
    Channel(s) : 2 channels
    Channel positions : Front: L R
    Sampling rate : 48.0 KHz
    Bit depth : 16 bits
    Compression mode : Lossy
    Stream size : 136 MiB (9%)
    Alignment : Aligned on interleaves
    Interleave, duration : 40 ms (1.00 video frame)
    Interleave, preload duratio : 512 ms

    Скриншот c названием фильма

    Скриншоты

    Скачать .torrent

    Скачать торрент-файл бесплатно и на максимальной скорости!

    Как скачивать? · Что такое торрент? · Рейтинг и ограничения

    !ВНИМАНИЕ!
    Сайт не распространяет и не хранит электронные версии произведений, а занимается лишь лишь предоставлением доступа к создаваемому пользователями каталогу ссылок на торрент-файлы, которые содержат только списки хеш-сумм, убедительная просьба с жалобами обращаться напрямую к пользователю. Файлы для обмена на трекере предоставлены пользователями сайта, и администрация не несёт ответственности за их содержание. Просьба не заливать файлы, защищенные авторскими правами, а также файлы нелегального содержания!


    _________________
    [Профиль] [ЛС]
    Показать сообщения:    
    Ответить на тему

    Текущее время: Сегодня, в 14:38

    Часовой пояс: GMT + 2



    Вы не можете начинать темы
    Вы не можете отвечать на сообщения
    Вы не можете редактировать свои сообщения
    Вы не можете удалять свои сообщения
    Вы не можете голосовать в опросах
    Вы не можете прикреплять файлы к сообщениям
    Вы не можете скачивать файлы