BitTorrentTracker PerecTracker.org
BitTorrentTracker PerecTracker.org
    
Регистрация  ·  Вход
 
 · 
Забыли пароль?

  • Эпидемия / Последние дни / Los Últimos Días / The Last Days (Давид Пастор / David Pastor, Алекс Пастор / Alex Pastor) [2013, Испания, фантастика, триллер, приключения, BDRip 1080p] DVO (den904 & DeadSno) + Original Spa + Sub Eng

    Ответить на тему
     
    Автор Сообщение

    Columb

    Создавать темы 03-Авг-2013 11:52

           

    [Цитировать]

    Эпидемия / Последние дни / Los Últimos Días / The Last Days
    «Barcelona, April 15th 2013. Six weeks after the panic»
    Год выпуска: 2013
    Страна: Испания
    Жанр: фантастика, триллер, приключения
    Продолжительность: 01:42:42
    Перевод: Любительский (двухголосый закадровый) den904 & DeadSno по переводу Janetta
    Оригинальная аудиодорожка: Испанская
    Субтитры: Английские
    Студия: Morena Films, Rebelion Terrestre, A3 Media Cine
    Режиссёр: Давид Пастор / David Pastor, Алекс Пастор / Alex Pastor
    В ролях: Ким Гутьеррес, Хосе Коронадо, Марта Этура, Летисия Долера, Микель Иглесиас, Иван Массаге, Пере Вентура, Луис Солер, Hwida, Фара Хамед и др.
    Описание: 2013 год. Таинственная эпидемия мгновенно распространилась по планете: теперь миром правит агорафобия — боязнь открытого пространства. Оставшиеся в живых люди прячутся под землей или внутри зданий.
    Главный герой офисный клерк Марк. Внезапная эпидемия застала его на работе. Дома у Марка осталась беременная жена, которая должна вот вот родить. Ему нужно вернуться к ней, но как это сделать, если он не может выйти на улицу? Он начинает свой путь по подземным коммуникациям, перебираясь из подвала, в другой подвал, из одного тоннеля метро в другой тоннель. Ему остается совсем немного, он уже видит свою жену из окна соседнего дома, но перейти в него, можно только по улице. Решится ли он на этот шаг?
    Качество: BDRip 1080p (HDSpain)
    Контейнер: MKV
    Видео кодек: MPEG-4 AVC Video
    Аудио кодек: DTS Audio / Dolby Digital Audio
    Видео: MPEG-4 AVC Video / 11300 kbps / 1920x804p / 24,000 fps / 2.40:1 / 0.305 bit/pix / High@L4.1
    Аудио 1: Русский / Dolby Digital Audio / 5.1 / 48 kHz / 448 kbps / 16-bit / DVO den904 & DeadSno
    Аудио 2: Spanish / DTS Audio / 5.1 / 48 kHz / 1536 kbps / 24-bit / Оригинал
    Навигация по главам: да
    Кинопоиск
    IMDB
    Сэмпл

    Дополнительная информация

    Релиз-группа:
    Работа со звуком: КОЛОБОК.

    Скриншот c названием фильма

    Скриншоты

    MediaInfo

    C:\Эпидемия (Последние дни) (Los Últimos Días) (The Last Days) 2013, Испания, фантастика, триллер, приключения, BDRip 1080p GORESEWAGE.mkv
    General
    Unique ID : 189245083244297666639874255152316783700 (0x8E5F46FAD3DADB96BC27C5B37CC19C54)
    Complete name : C:\Эпидемия (Последние дни) (Los Últimos Días) (The Last Days) 2013, Испания, фантастика, триллер, приключения, BDRip 1080p GORESEWAGE.mkv
    Format : Matroska
    Format version : Version 4 / Version 2
    File size : 9.51 GiB
    Duration : 1h 42mn
    Overall bit rate : 13.3 Mbps
    Movie name : GORESEWAGE
    Encoded date : UTC 2013-08-02 08:09:48
    Writing application : mkvmerge v6.1.0 ('Old Devil') built on Mar 31 2013 15:21:18
    Writing library : libebml v1.3.0 + libmatroska v1.4.0
    Video #1
    ID : 1
    Format : AVC
    Format/Info : Advanced Video Codec
    Format profile : High@L4.1
    Format settings, CABAC : Yes
    Format settings, ReFrames : 5 frames
    Codec ID : V_MPEG4/ISO/AVC
    Duration : 1h 42mn
    Bit rate : 11.3 Mbps
    Width : 1 920 pixels
    Height : 804 pixels
    Display aspect ratio : 2.40:1
    Frame rate mode : Constant
    Frame rate : 24.000 fps
    Color space : YUV
    Chroma subsampling : 4:2:0
    Bit depth : 8 bits
    Scan type : Progressive
    Bits/(Pixel*Frame) : 0.305
    Stream size : 7.92 GiB (83%)
    Title : GORESEWAGE
    Writing library : x264 core 133 r2334 a3ac64b
    Encoding settings : cabac=1 / ref=5 / deblock=1:-3:-3 / analyse=0x3:0x133 / me=umh / subme=11 / psy=1 / psy_rd=1.00:0.00 / mixed_ref=1 / me_range=48 / chroma_me=1 / trellis=2 / 8x8dct=1 / cqm=0 / deadzone=21,11 / fast_pskip=1 / chroma_qp_offset=-2 / threads=12 / lookahead_threads=2 / sliced_threads=0 / nr=0 / decimate=1 / interlaced=0 / bluray_compat=0 / constrained_intra=0 / bframes=8 / b_pyramid=2 / b_adapt=2 / b_bias=0 / direct=3 / weightb=1 / open_gop=0 / weightp=2 / keyint=250 / keyint_min=23 / scenecut=40 / intra_refresh=0 / rc_lookahead=50 / rc=2pass / mbtree=1 / bitrate=11300 / ratetol=1.0 / qcomp=0.60 / qpmin=0 / qpmax=69 / qpstep=4 / cplxblur=20.0 / qblur=0.5 / vbv_maxrate=40000 / vbv_bufsize=30000 / nal_hrd=none / ip_ratio=1.40 / aq=1:1.00
    Language : Spanish
    Default : Yes
    Forced : No
    Audio #2
    ID : 2
    Format : AC-3
    Format/Info : Audio Coding 3
    Mode extension : CM (complete main)
    Format settings, Endianness : Big
    Codec ID : A_AC3
    Duration : 1h 42mn
    Bit rate mode : Constant
    Bit rate : 448 Kbps
    Channel(s) : 6 channels
    Channel positions : Front: L C R, Side: L R, LFE
    Sampling rate : 48.0 KHz
    Bit depth : 16 bits
    Compression mode : Lossy
    Stream size : 329 MiB (3%)
    Title : Любительский (двухголосый закадровый) den904 & DeadSno
    Language : Russian
    Default : Yes
    Forced : No
    Audio #3
    ID : 3
    Format : DTS
    Format/Info : Digital Theater Systems
    Codec ID : A_DTS
    Duration : 1h 42mn
    Bit rate mode : Constant
    Bit rate : 1 510 Kbps
    Channel(s) : 6 channels
    Channel positions : Front: L C R, Side: L R, LFE
    Sampling rate : 48.0 KHz
    Bit depth : 24 bits
    Compression mode : Lossy
    Stream size : 1.08 GiB (11%)
    Title : Оригинал
    Language : Spanish
    Default : No
    Forced : No
    Text #4
    ID : 4
    Format : UTF-8
    Codec ID : S_TEXT/UTF8
    Codec ID/Info : UTF-8 Plain Text
    Title : Full
    Language : English
    Default : No
    Forced : No
    Menu
    00:00:00.000 : en:00:00:00.000
    00:11:55.542 : en:00:11:55.542
    00:24:51.500 : en:00:24:51.500
    00:36:01.667 : en:00:36:01.667
    00:47:24.875 : en:00:47:24.875
    01:01:10.167 : en:01:01:10.167
    01:12:39.792 : en:01:12:39.792
    01:27:23.250 : en:01:27:23.250
    Скачать .torrent

    Скачать торрент-файл бесплатно и на максимальной скорости!

    Как скачивать? · Что такое торрент? · Рейтинг и ограничения

    !ВНИМАНИЕ!
    Сайт не распространяет и не хранит электронные версии произведений, а занимается лишь лишь предоставлением доступа к создаваемому пользователями каталогу ссылок на торрент-файлы, которые содержат только списки хеш-сумм, убедительная просьба с жалобами обращаться напрямую к пользователю. Файлы для обмена на трекере предоставлены пользователями сайта, и администрация не несёт ответственности за их содержание. Просьба не заливать файлы, защищенные авторскими правами, а также файлы нелегального содержания!

    [Профиль] [ЛС]
    Показать сообщения:    
    Ответить на тему

    Текущее время: Сегодня, в 19:07

    Часовой пояс: GMT + 2



    Вы не можете начинать темы
    Вы не можете отвечать на сообщения
    Вы не можете редактировать свои сообщения
    Вы не можете удалять свои сообщения
    Вы не можете голосовать в опросах
    Вы не можете прикреплять файлы к сообщениям
    Вы не можете скачивать файлы