BitTorrentTracker PerecTracker.org
BitTorrentTracker PerecTracker.org
    
Регистрация  ·  Вход
 
 · 
Забыли пароль?

  • Здрасьте, я ваш папа! (Владимир Чубриков) [2013, комедия, SATRip]

    Ответить на тему
     
    Автор Сообщение

    rechyn

    Создавать темы 08-Дек-2015 23:10

           

    [Цитировать]

    Здрасьте, я ваш папа!
    Жанр: комедия
    Год выпуска: 2013
    Продолжительность: 01:20:10
    Режиссёр: Владимир Чубриков
    В ролях: Александр Демидов, Алексей Панин, Валерий Баринов, Владимир Стержаков, Мария Горбань, Даша Чаруша, Валерия Кудрявцева, Игорь Кистол, Семен Фурман, Ёла Санько
    Описание: Иннокентий Печенкин — абсолютный неудачник по жизни! На него, одна за одной, валятся всевозможные проблемы, которые, казалось бы, уже нерешаемы. Но, в один прекрасный момент, главному герою фильма выпадает шанс решить все сложности разом, а именно — обзавестись семьей, и все бы ничего, но времени у него — всего лишь месяц!
    Сэмпл: http://multi-up.com/1032529
    Качество видео: SATRip
    Формат видео: AVI
    Видео: Xvid, 704:304, 2,526, 25,000 кадров/сек, 1615 Кбит/сек
    Аудио: MP3, 44,1 КГц, 128 Кбит/сек, 2 канала

    MediaInfo

    Общее
    Полное имя: C:\фильмы\Здрасьте, я ваш папа!.avi
    Формат: AVI
    Формат/Информация: Audio Video Interleave
    Размер файла: 1007 Мбайт
    Продолжительность: 1 ч. 20 м.
    Общий поток: 1756 Кбит/сек
    Программа кодирования: Lavf52.93.0
    Видео
    Идентификатор: 0
    Формат: xvid
    Идентификатор кодека: xvid
    Продолжительность: 1 ч. 20 м.
    Битрейт: 1615 Кбит/сек
    Ширина: 704 пикселя
    Высота: 304 пикселя
    Соотношение сторон: 2,526
    Частота кадров: 25,000 кадров/сек
    Бит/(Пиксели*Кадры): 0.302
    Размер потока: 926 Мбайт (92%)
    Аудио
    Идентификатор: 1
    Формат: MPEG Audio
    Версия формата: Version 1
    Профиль формата: Layer 3
    Режим: Joint stereo
    Расширение режима: MS Stereo
    Идентификатор кодека: 55
    Идентификатор кодека/Подсказка: MP3
    Продолжительность: 1 ч. 20 м.
    Вид битрейта: Постоянный
    Битрейт: 128 Кбит/сек
    Каналы: 2 канала
    Частота: 44,1 КГц
    Метод сжатия: С потерями
    Размер потока: 73,4 Мбайт (7%)
    Выравнивание: Соединение по промежуткам
    Продолжительность промежутка: 26мс. (0,65 видеокадр)
    Время предзагрузки промежутка: 26мс.

    Скриншот c названием фильма

    Скриншоты

    Скачать .torrent

    Скачать торрент-файл бесплатно и на максимальной скорости!

    Как скачивать? · Что такое торрент? · Рейтинг и ограничения

    !ВНИМАНИЕ!
    Сайт не распространяет и не хранит электронные версии произведений, а занимается лишь лишь предоставлением доступа к создаваемому пользователями каталогу ссылок на торрент-файлы, которые содержат только списки хеш-сумм, убедительная просьба с жалобами обращаться напрямую к пользователю. Файлы для обмена на трекере предоставлены пользователями сайта, и администрация не несёт ответственности за их содержание. Просьба не заливать файлы, защищенные авторскими правами, а также файлы нелегального содержания!


    _________________
    [Профиль] [ЛС]
    Показать сообщения:    
    Ответить на тему

    Текущее время: Сегодня, в 22:05

    Часовой пояс: GMT + 2



    Вы не можете начинать темы
    Вы не можете отвечать на сообщения
    Вы не можете редактировать свои сообщения
    Вы не можете удалять свои сообщения
    Вы не можете голосовать в опросах
    Вы не можете прикреплять файлы к сообщениям
    Вы не можете скачивать файлы