BitTorrentTracker PerecTracker.org
BitTorrentTracker PerecTracker.org
    
Регистрация  ·  Вход
 
 · 
Забыли пароль?

  • Близнецы (Константин Юдин) [1945 г., комедия, SATRip]

    Ответить на тему
     
    Автор Сообщение

    Light

    Создавать темы 08-Дек-2015 23:09

           

    [Цитировать]

    БлизнецыГод выпуска: 1945.
    Жанр: комедия.
    Продолжительность: 01:19:10.
    Режиссер: Константин Юдин.
    В ролях:
    Михаил Жаров, Людмила Целиковская, Вера Орлова, Павел Шпрингфельд, Андрей Тутышкин, Ирина Мурзаева, Дмитрий Павлов, Константин Сорокин, Владимир Грибков, Инна Фёдорова.
    Описание:
    Найдя на вокзале двух близнецов, Люба Карасева решает их усыновить. Все пытаются помочь молодой маме, кроме начальника базы горторга Еропкина, который имеет собственные виды на девушку. Но дети исчезают... В результате поисков находится их настоящая мать, затем и близнецы. А Еропкин оказывается, в конце концов, не только отцом брошенных детей, но и проходимцем.
    Доп. информация:
    Страна: СССР .
    Киностудия: Мосфильм.
    Авторы сценария: Яков Ялунер, Михаил Витухновский.
    Оператор: Александр Тарасов.
    Композитор: Оскар Сандлер.
    Художник: Иван Степанов.
    Премьера: 21 декабря 1945 года.
    ,

    Еще постеры

    Рип с этой раздачи.
    Большое спасибо Cheef mate за предоставленый материал для рипа!!!

    Качество: SATRip
    Формат: AVI
    Видео: 640x464 (1.38:1), 25 fps, XviD build 65 ~1189 kbps avg, 0.16 bit/pixel
    Аудио: 48 kHz, MPEG Layer 3, 2 ch, ~128.00 kbps avg

    Отчет MI

    General
    Complete name : Bliznecy.1945.XviD.SATRip_752.avi
    Формат : AVI
    Формат/Информация : Audio Video Interleave
    Размер файла : 752 Мбайт
    Продолжительность : 1 ч. 19 м.
    Общий поток : 1327 Кбит/сек
    Программа кодирования : VirtualDubMod 1.5.10.3 | www.virtualdub-fr.org || (build 2550/release)
    Библиотека кодирования : VirtualDubMod build 2550/release
    Видео
    Идентификатор : 0
    Формат : MPEG-4 Visual
    Профиль формата : Advanced Simple@L5
    Параметр BVOP формата : 1
    Параметр QPel формата : Нет
    Параметр GMC формата : Без точки перехода
    Параметр матрицы формата : Выборочная
    Идентификатор кодека : XVID
    Идентификатор кодека/Подсказка : XviD
    Продолжительность : 1 ч. 19 м.
    Битрейт : 1190 Кбит/сек
    Ширина : 640 пикселей
    Высота : 464 пикселя
    Соотношение сторон : 1,379
    Частота кадров : 25,000 кадров/сек
    Цветовое пространство : YUV
    Субдискретизация насыщенности : 4:2:0
    Битовая глубина : 8 бит
    Тип развёртки : Прогрессивная
    Метод сжатия : С потерями
    Бит/(Пиксели*Кадры) : 0.160
    Размер потока : 674 Мбайт (90%)
    Библиотека кодирования : XviD 65
    Аудио
    Идентификатор : 1
    Формат : MPEG Audio
    Версия формата : Version 1
    Профиль формата : Layer 3
    Идентификатор кодека : 55
    Идентификатор кодека/Подсказка : MP3
    Продолжительность : 1 ч. 19 м.
    Вид битрейта : Постоянный
    Битрейт : 128 Кбит/сек
    Каналы : 2 канала
    Частота : 48,0 КГц
    Метод сжатия : С потерями
    Размер потока : 72,5 Мбайт (10%)
    Выравнивание : Соединение по промежуткам
    Продолжительность промежутка : 40 мс. (1,00 видеокадр)
    Время предзагрузки промежутка : 504 мс.
    Библиотека кодирования : LAME3.99r
    Настройки программы : -m s -V 4 -q 2 -lowpass 17 -b 128
    Скриншоты

    Альтернативный хост

    Скачать .torrent

    Скачать торрент-файл бесплатно и на максимальной скорости!

    Как скачивать? · Что такое торрент? · Рейтинг и ограничения

    !ВНИМАНИЕ!
    Сайт не распространяет и не хранит электронные версии произведений, а занимается лишь лишь предоставлением доступа к создаваемому пользователями каталогу ссылок на торрент-файлы, которые содержат только списки хеш-сумм, убедительная просьба с жалобами обращаться напрямую к пользователю. Файлы для обмена на трекере предоставлены пользователями сайта, и администрация не несёт ответственности за их содержание. Просьба не заливать файлы, защищенные авторскими правами, а также файлы нелегального содержания!


    _________________
    [Профиль] [ЛС]
    Показать сообщения:    
    Ответить на тему

    Текущее время: Сегодня, в 14:08

    Часовой пояс: GMT + 2



    Вы не можете начинать темы
    Вы не можете отвечать на сообщения
    Вы не можете редактировать свои сообщения
    Вы не можете удалять свои сообщения
    Вы не можете голосовать в опросах
    Вы не можете прикреплять файлы к сообщениям
    Вы не можете скачивать файлы