BitTorrentTracker PerecTracker.org
BitTorrentTracker PerecTracker.org
    
Регистрация  ·  Вход
 
 · 
Забыли пароль?

  • Под крышами Монмартра (Владимир Гориккер) [1975 г., музыкальная комедия, DVDRip]

    Ответить на тему
     
    Автор Сообщение

    Light

    Создавать темы 08-Дек-2015 23:09

           

    [Цитировать]

    Под крышами Монмартра (2 серии)Год выпуска: 1975.
    Жанр: музыкальная комедия.
    Продолжительность: 01:06:25 + 01:10:34 (02:16:59).
    Режиссер: Владимир Гориккер.
    В ролях:
    Евгения Симонова, Валентина Смелкова, Александр Кайдановский, Игорь Старыгин, Владимир Носик, Людмила Касаткина, Владимир Басов, Олег Анофриев, Георгий Георгиу, Григорий Шпигель, Александр Белявский, Эммануил Геллер, Владимир Вязовик.
    Описание:
    Телефильм. Экранизация оперетты Имре Кальмана "Фиалка Монмартра".
    Скромная продавщица цветов, жившая из милости у хозяина кафе, внезапно оказалась без крова и в долгах. И вряд ли убереглась бы она от судьбы дамы с камелиями, если бы не три друга - художник, музыкант и поэт - и другие обитатели артистического Монмартра, люди бедные и талантливые. А поскольку все это происходит в оперетте, не стоит удивляться тому, что очаровательная Виолетта в конце концов становится звездой - фиалкой Монмартра. А это - совсем-совсем другой цветок...

    Доп. информация:
    Страна: СССР .
    Киностудия: "Мосфильм" по заказу Гостелерадио СССР.
    Авторы сценария: Владимир Гориккер, Генрих Рябкин, Самуил Болотин, Татьяна Сикорская.
    Оператор: Петр Терпсихоров.
    Композиторы: Имре Кальман, Георгий Фиртич.
    Художники: Александр Бойм, Сергей Воронков, Алина Будникова.
    Премьера: 3 января 1976 года.

    Релиз
    Рип сделан с DVD9

    Еще постер


    Качество: DVDRip
    Формат: AVI

    Видео

    1-я серия - 640x480 (1.33:1), 25 fps, XviD build 65 ~1403 kbps avg, 0.18 bit/pixel
    2-я серия - 640x480 (1.33:1), 25 fps, XviD build 65 ~1404 kbps avg, 0.18 bit/pixel
    Аудио: 48 kHz, MPEG Layer 3, 2 ch, ~128.00 kbps avg

    Отчет MI

    1-я серия
    General
    Complete name : Pod.kryshami.Monmartra.(2.serii.iz.2).1975.XviD.SATRip_1.48\Pod.kryshami.Monmartra.(1-ya.seriya.iz.2).1975.XviD.SATRip_1.48.avi
    Формат : AVI
    Формат/Информация : Audio Video Interleave
    Размер файла : 732 Мбайт
    Продолжительность : 1 ч. 6 м.
    Общий поток : 1542 Кбит/сек
    Программа кодирования : VirtualDubMod 1.5.10.3 | www.virtualdub-fr.org || (build 2550/release)
    Библиотека кодирования : VirtualDubMod build 2550/release
    Видео
    Идентификатор : 0
    Формат : MPEG-4 Visual
    Профиль формата : Advanced Simple@L5
    Параметр BVOP формата : 1
    Параметр QPel формата : Нет
    Параметр GMC формата : Без точки перехода
    Параметр матрицы формата : Выборочная
    Идентификатор кодека : XVID
    Идентификатор кодека/Подсказка : XviD
    Продолжительность : 1 ч. 6 м.
    Битрейт : 1404 Кбит/сек
    Ширина : 640 пикселей
    Высота : 480 пикселей
    Соотношение сторон : 4:3
    Частота кадров : 25,000 кадров/сек
    Цветовое пространство : YUV
    Субдискретизация насыщенности : 4:2:0
    Битовая глубина : 8 бит
    Тип развёртки : Прогрессивная
    Метод сжатия : С потерями
    Бит/(Пиксели*Кадры) : 0.183
    Размер потока : 667 Мбайт (91%)
    Библиотека кодирования : XviD 65
    Аудио
    Идентификатор : 1
    Формат : MPEG Audio
    Версия формата : Version 1
    Профиль формата : Layer 3
    Идентификатор кодека : 55
    Идентификатор кодека/Подсказка : MP3
    Продолжительность : 1 ч. 6 м.
    Вид битрейта : Постоянный
    Битрейт : 128 Кбит/сек
    Каналы : 2 канала
    Частота : 48,0 КГц
    Метод сжатия : С потерями
    Размер потока : 60,8 Мбайт (8%)
    Выравнивание : Соединение по промежуткам
    Продолжительность промежутка : 40 мс. (1,00 видеокадр)
    Время предзагрузки промежутка : 504 мс.
    Библиотека кодирования : LAME3.99r
    Настройки программы : -m s -V 4 -q 2 -lowpass 17 -b 128
    2-я серия
    General
    Complete name : Pod.kryshami.Monmartra.(2.serii.iz.2).1975.XviD.SATRip_1.48\Pod.kryshami.Monmartra.(2-ya.seriya.iz.2).1975.XviD.SATRip_1.48.avi
    Формат : AVI
    Формат/Информация : Audio Video Interleave
    Размер файла : 778 Мбайт
    Продолжительность : 1 ч. 10 м.
    Общий поток : 1542 Кбит/сек
    Программа кодирования : VirtualDubMod 1.5.10.3 | www.virtualdub-fr.org || (build 2550/release)
    Библиотека кодирования : VirtualDubMod build 2550/release
    Видео
    Идентификатор : 0
    Формат : MPEG-4 Visual
    Профиль формата : Advanced Simple@L5
    Параметр BVOP формата : 1
    Параметр QPel формата : Нет
    Параметр GMC формата : Без точки перехода
    Параметр матрицы формата : Выборочная
    Идентификатор кодека : XVID
    Идентификатор кодека/Подсказка : XviD
    Продолжительность : 1 ч. 10 м.
    Битрейт : 1404 Кбит/сек
    Ширина : 640 пикселей
    Высота : 480 пикселей
    Соотношение сторон : 4:3
    Частота кадров : 25,000 кадров/сек
    Цветовое пространство : YUV
    Субдискретизация насыщенности : 4:2:0
    Битовая глубина : 8 бит
    Тип развёртки : Прогрессивная
    Метод сжатия : С потерями
    Бит/(Пиксели*Кадры) : 0.183
    Размер потока : 709 Мбайт (91%)
    Библиотека кодирования : XviD 65
    Аудио
    Идентификатор : 1
    Формат : MPEG Audio
    Версия формата : Version 1
    Профиль формата : Layer 3
    Идентификатор кодека : 55
    Идентификатор кодека/Подсказка : MP3
    Продолжительность : 1 ч. 10 м.
    Вид битрейта : Постоянный
    Битрейт : 128 Кбит/сек
    Каналы : 2 канала
    Частота : 48,0 КГц
    Метод сжатия : С потерями
    Размер потока : 64,6 Мбайт (8%)
    Выравнивание : Соединение по промежуткам
    Продолжительность промежутка : 40 мс. (1,00 видеокадр)
    Время предзагрузки промежутка : 504 мс.
    Библиотека кодирования : LAME3.99r
    Настройки программы : -m s -V 4 -q 2 -lowpass 17 -b 128
    Скриншоты

    Альтернативный хост


    Скачать .torrent

    Скачать торрент-файл бесплатно и на максимальной скорости!

    Как скачивать? · Что такое торрент? · Рейтинг и ограничения

    !ВНИМАНИЕ!
    Сайт не распространяет и не хранит электронные версии произведений, а занимается лишь лишь предоставлением доступа к создаваемому пользователями каталогу ссылок на торрент-файлы, которые содержат только списки хеш-сумм, убедительная просьба с жалобами обращаться напрямую к пользователю. Файлы для обмена на трекере предоставлены пользователями сайта, и администрация не несёт ответственности за их содержание. Просьба не заливать файлы, защищенные авторскими правами, а также файлы нелегального содержания!


    _________________
    [Профиль] [ЛС]
    Показать сообщения:    
    Ответить на тему

    Текущее время: Сегодня, в 17:34

    Часовой пояс: GMT + 2



    Вы не можете начинать темы
    Вы не можете отвечать на сообщения
    Вы не можете редактировать свои сообщения
    Вы не можете удалять свои сообщения
    Вы не можете голосовать в опросах
    Вы не можете прикреплять файлы к сообщениям
    Вы не можете скачивать файлы