Register  ·  Log in
Forgot password?

  • У старой мельницы (Хусейн Ибрагимов) [1972, Драма, TVRip]

    Reply to topic
    Author Message


    Post 09-Dec-2015 00:09



    У старой мельницы
    Жанр: Драма
    Год выпуска: 1972
    Продолжительность: 01:14:51

    Режиссёр: Хусейн Ибрагимов
    В ролях: Наталья Аринбасарова, Советбек Джумадылов, Асанбек Умуралиев, Бакирдин Алиев, Джамал Сейдакматова, Асанкул Куттубаев, А. Чодронов, М. Рыскулбеков, С. Турапов, И. Таникеева, Ж. Кулмухаметов, У. Иманбеков, И. Шершенов
    Описание: Молодая учительница Асель приезжает работать в сельскую школу и несмотря на трудности, конфликт с директором школы, решает остаться здесь, где когда-то обучал грамоте малых и взрослых ее отец. Он здесь, в селе Кадам, был первым учителем, оставив о себе добрую память.

    Доп. информация: КиноПоиск

    Качество видео: TVRip
    Формат видео: AVI
    Видео: 720x544 (1.32:1), 25 fps, XviD MPEG-4 ~1258 kbps avg, 0.13 bit/pixel
    Аудио: 48 kHz, MPEG Layer 3, 2 ch, ~128.00 kbps avg


    Complete name : U.staroi.melnicy.1972.TVRip.fenixclub.avi
    Format : AVI
    Format/Info : Audio Video Interleave
    File size : 748 MiB
    Duration : 1h 14mn
    Overall bit rate : 1 396 Kbps
    Writing application : VirtualDubModRus (build 2542/release)
    Writing library : VirtualDub build 32842/release
    ID : 0
    Format : MPEG-4 Visual
    Format profile : Advanced Simple@L5
    Format settings, BVOP : Yes
    Format settings, QPel : No
    Format settings, GMC : No warppoints
    Format settings, Matrix : Default (H.263)
    Codec ID : XVID
    Codec ID/Hint : XviD
    Duration : 1h 14mn
    Bit rate : 1 259 Kbps
    Width : 720 pixels
    Height : 544 pixels
    Display aspect ratio : 4:3
    Frame rate : 25.000 fps
    Color space : YUV
    Chroma subsampling : 4:2:0
    Bit depth : 8 bits
    Scan type : Progressive
    Compression mode : Lossy
    Bits/(Pixel*Frame) : 0.129
    Stream size : 674 MiB (90%)
    Writing library : XviD 73
    ID : 1
    Format : MPEG Audio
    Format version : Version 1
    Format profile : Layer 3
    Mode : Joint stereo
    Mode extension : MS Stereo
    Codec ID : 55
    Codec ID/Hint : MP3
    Duration : 1h 14mn
    Bit rate mode : Constant
    Bit rate : 128 Kbps
    Channel(s) : 2 channels
    Sampling rate : 48.0 KHz
    Compression mode : Lossy
    Stream size : 68.5 MiB (9%)
    Alignment : Split accross interleaves
    Interleave, duration : 40 ms (1.00 video frame)
    Interleave, preload duration : 500 ms


    Download .torrent

    Download free and at maximum speed!

    How to Download? · What is a torrent? · Ratings and Limitations

    The site does not extend and does not store electronic(digital) versions of products, and only gives access to a reference catalogue created by users on torrent-files which contain only lists of the hash-sums, the earnest entreaty, with complaints(abuse) to access directly to the user. Files for an exchange on tracker are given by users of a site, and the administration does not bear the responsibility for their maintenance. The request to not fill in the files protected by copyrights, and also files of the illegal maintenance!

    [Profile] [PM]
    Display posts from previous:    
    Reply to topic

    The time now is: Today 11:41

    All times are GMT + 3 Hours

    You cannot post new topics in this forum
    You cannot reply to topics in this forum
    You cannot edit your posts in this forum
    You cannot delete your posts in this forum
    You cannot vote in polls in this forum
    You cannot attach files in this forum
    You cannot download files in this forum