Register  ·  Log in
Forgot password?

  • Письма к живым (Валентин Виноградов) [1964, Драма, DVDScreener]

    Reply to topic
    Author Message


    Post 09-Dec-2015 00:09



    Письма к живым
    Жанр: Драма
    Год выпуска: 1964
    Продолжительность: 01:32:58
    Режиссёр: Валентин Виноградов

    В ролях: Светлана Макарова, Астрида Кайриша, Валентин Никулин, Павел Махотин, Валентина Кибардина, Григорий Гай, Николай Прокопович, Стефания Станюта, Лена Гутник, Бронюс Бабкаускас, Янукас Видицкас, Мария Зинкевич, Владимир Дробышевский, Владимир Кудревич, Александр Михайлов (II), Александр Роговин
    Описание: После окончания Великой отечественной войны в камере казненной немцами партизанки Вероники Корчевской находят письма - итог ее героической жизни...
    Доп. информация: Релиз: , pmv
    Исходный материал найден в сети.
    Качество видео: DVDScreener
    Формат видео: AVI
    Видео: 720x544 (1.32:1), 25 fps, XviD build 73 ~1998 kbps avg, 0.20 bit/pixel
    Аудио: 48 kHz, MPEG Layer 3, 2 ch, ~128.00 kbps avg


    Format : AVI
    Format/Info : Audio Video Interleave
    File size : 1.39 GiB
    Duration : 1h 32mn
    Overall bit rate : 2 137 Kbps
    Writing library : VirtualDub build 35560/release
    ID : 0
    Format : MPEG-4 Visual
    Format profile : Advanced Simple@L5
    Format settings, BVOP : Yes
    Format settings, QPel : No
    Format settings, GMC : No warppoints
    Format settings, Matrix : Default (H.263)
    Codec ID : XVID
    Codec ID/Hint : XviD
    Duration : 1h 32mn
    Bit rate : 1 999 Kbps
    Width : 720 pixels
    Height : 544 pixels
    Display aspect ratio : 4:3
    Frame rate : 25.000 fps
    Color space : YUV
    Chroma subsampling : 4:2:0
    Bit depth : 8 bits
    Scan type : Progressive
    Bits/(Pixel*Frame) : 0.204
    Stream size : 1.30 GiB (94%)
    Writing library : XviD 73
    ID : 1
    Format : MPEG Audio
    Format version : Version 1
    Format profile : Layer 3
    Mode : Joint stereo
    Codec ID : 55
    Codec ID/Hint : MP3
    Duration : 1h 32mn
    Bit rate mode : Constant
    Bit rate : 128 Kbps
    Channel(s) : 2 channels
    Sampling rate : 48.0 KHz
    Video delay : 12ms
    Stream size : 85.1 MiB (6%)
    Alignment : Split accross interleaves
    Interleave, duration : 40 ms (1.00 video frame)
    Interleave, preload duration : 500 ms

    Скриншот c названием фильма


    Download .torrent

    Download free and at maximum speed!

    How to Download? · What is a torrent? · Ratings and Limitations

    The site does not extend and does not store electronic(digital) versions of products, and only gives access to a reference catalogue created by users on torrent-files which contain only lists of the hash-sums, the earnest entreaty, with complaints(abuse) to access directly to the user. Files for an exchange on tracker are given by users of a site, and the administration does not bear the responsibility for their maintenance. The request to not fill in the files protected by copyrights, and also files of the illegal maintenance!

    [Profile] [PM]
    Display posts from previous:    
    Reply to topic

    The time now is: Today 20:18

    All times are GMT + 3 Hours

    You cannot post new topics in this forum
    You cannot reply to topics in this forum
    You cannot edit your posts in this forum
    You cannot delete your posts in this forum
    You cannot vote in polls in this forum
    You cannot attach files in this forum
    You cannot download files in this forum