BitTorrentTracker PerecTracker.org
BitTorrentTracker PerecTracker.org
    
Регистрация  ·  Вход
 
 · 
Забыли пароль?

  • Письма к живым (Валентин Виноградов) [1964, Драма, DVDScreener]

    Ответить на тему
     
    Автор Сообщение

    Light

    Создавать темы 08-Дек-2015 23:09

           

    [Цитировать]

    Письма к живым
    Жанр: Драма
    Год выпуска: 1964
    Продолжительность: 01:32:58
    Режиссёр: Валентин Виноградов

    В ролях: Светлана Макарова, Астрида Кайриша, Валентин Никулин, Павел Махотин, Валентина Кибардина, Григорий Гай, Николай Прокопович, Стефания Станюта, Лена Гутник, Бронюс Бабкаускас, Янукас Видицкас, Мария Зинкевич, Владимир Дробышевский, Владимир Кудревич, Александр Михайлов (II), Александр Роговин
    Описание: После окончания Великой отечественной войны в камере казненной немцами партизанки Вероники Корчевской находят письма - итог ее героической жизни...
    Доп. информация: Релиз: , pmv
    Исходный материал найден в сети.
    Сэмпл: http://multi-up.com/1028790
    Качество видео: DVDScreener
    Формат видео: AVI
    Видео: 720x544 (1.32:1), 25 fps, XviD build 73 ~1998 kbps avg, 0.20 bit/pixel
    Аудио: 48 kHz, MPEG Layer 3, 2 ch, ~128.00 kbps avg
    Cравнение:

    MediaInfo

    Format : AVI
    Format/Info : Audio Video Interleave
    File size : 1.39 GiB
    Duration : 1h 32mn
    Overall bit rate : 2 137 Kbps
    Writing library : VirtualDub build 35560/release
    Video
    ID : 0
    Format : MPEG-4 Visual
    Format profile : Advanced Simple@L5
    Format settings, BVOP : Yes
    Format settings, QPel : No
    Format settings, GMC : No warppoints
    Format settings, Matrix : Default (H.263)
    Codec ID : XVID
    Codec ID/Hint : XviD
    Duration : 1h 32mn
    Bit rate : 1 999 Kbps
    Width : 720 pixels
    Height : 544 pixels
    Display aspect ratio : 4:3
    Frame rate : 25.000 fps
    Color space : YUV
    Chroma subsampling : 4:2:0
    Bit depth : 8 bits
    Scan type : Progressive
    Bits/(Pixel*Frame) : 0.204
    Stream size : 1.30 GiB (94%)
    Writing library : XviD 73
    Audio
    ID : 1
    Format : MPEG Audio
    Format version : Version 1
    Format profile : Layer 3
    Mode : Joint stereo
    Codec ID : 55
    Codec ID/Hint : MP3
    Duration : 1h 32mn
    Bit rate mode : Constant
    Bit rate : 128 Kbps
    Channel(s) : 2 channels
    Sampling rate : 48.0 KHz
    Video delay : 12ms
    Stream size : 85.1 MiB (6%)
    Alignment : Split accross interleaves
    Interleave, duration : 40 ms (1.00 video frame)
    Interleave, preload duration : 500 ms

    Скриншот c названием фильма

    Скриншоты

    Скачать .torrent

    Скачать торрент-файл бесплатно и на максимальной скорости!

    Как скачивать? · Что такое торрент? · Рейтинг и ограничения

    !ВНИМАНИЕ!
    Сайт не распространяет и не хранит электронные версии произведений, а занимается лишь лишь предоставлением доступа к создаваемому пользователями каталогу ссылок на торрент-файлы, которые содержат только списки хеш-сумм, убедительная просьба с жалобами обращаться напрямую к пользователю. Файлы для обмена на трекере предоставлены пользователями сайта, и администрация не несёт ответственности за их содержание. Просьба не заливать файлы, защищенные авторскими правами, а также файлы нелегального содержания!


    _________________
    [Профиль] [ЛС]
    Показать сообщения:    
    Ответить на тему

    Текущее время: Сегодня, в 10:58

    Часовой пояс: GMT + 2



    Вы не можете начинать темы
    Вы не можете отвечать на сообщения
    Вы не можете редактировать свои сообщения
    Вы не можете удалять свои сообщения
    Вы не можете голосовать в опросах
    Вы не можете прикреплять файлы к сообщениям
    Вы не можете скачивать файлы