BitTorrentTracker PerecTracker.org
BitTorrentTracker PerecTracker.org
    
Регистрация  ·  Вход
 
 · 
Забыли пароль?

  • Преферанс по пятницам (Игорь Шешуков) [1984, Детектив, DVB]

    Ответить на тему
     
    Автор Сообщение

    Light

    Создавать темы 08-Дек-2015 23:09

           

    [Цитировать]

    Преферанс по пятницам
    Жанр: Детектив
    Год выпуска: 1984
    Продолжительность: 1:27:28
    Режиссёр: Игорь Шешуков
    В ролях: Александр Смирнов (V), Екатерина Васильева, Кирилл Лавров, Вера Глаголева, Юрий Горобец, Людмила Аринина, Алексей Миронов
    Описание: Молодой ученый-зоолог Алексей Шапошников прерывает научную экспедицию, узнав о скоропостижной смерти от сердечной недостаточности отца - крупного торгового деятеля. Из записей, оставшихся после отца, юноша с ужасом обнаруживает, что тот не вынес открывшегося ему предательства со стороны ближайшего друга и соратника, который к тому же оказался любовником его жены. Занявшись расследованием, Алексей узнает, что отец и ближайшие его друзья, непременные участники преферанса по пятницам, были партнерами по незаконным торговым операциям.
    Не найдя выхода, Шапошников-старший покончил жизнь самоубийством. Сын решает заявить об этом в милицию...
    Доп. информация: Производство: Ленфильм
    На видео местами всплывают банеры с названием фильма
    Семпл: https://www.sendspace.com/file/9pwpki
    Качество видео: DVB
    Формат видео:MPEG-PS
    Видео: MPEG Video , 720x576(4:3), 25,000 кадров/сек, 3 424 Kbps
    Аудио: MPEG Audio, 48,0 КГц, 192 Кбит/сек, 2 канала

    MediaInfo

    Complete name Преферанс по пятницам 1984.mpg
    Format : MPEG-PS
    File size : 2.25 GiB
    Duration : 1h 27mn
    Overall bit rate : 3 690 Kbps
    Video
    ID : 224 (0xE0)
    Format : MPEG Video
    Format version : Version 2
    Format profile : Main@Main
    Format settings, BVOP : Yes
    Format settings, Matrix : Custom
    Format settings, GOP : M=3, N=15
    Format settings, picture st : Frame
    Duration : 1h 27mn
    Bit rate : 3 424 Kbps
    Maximum bit rate : 3 150 Kbps
    Width : 720 pixels
    Height : 576 pixels
    Display aspect ratio : 4:3
    Frame rate : 25.000 fps
    Standard : PAL
    Color space : YUV
    Chroma subsampling : 4:2:0
    Bit depth : 8 bits
    Scan type : Interlaced
    Scan order : Top Field First
    Compression mode : Lossy
    Bits/(Pixel*Frame) : 0.330
    Time code of first frame : 00:00:10:00
    Time code source : Group of pictures header
    GOP, Open/Closed : Open
    Stream size : 2.09 GiB (93%)
    Audio
    ID : 192 (0xC0)
    Format : MPEG Audio
    Format version : Version 1
    Format profile : Layer 2
    Mode : Joint stereo
    Mode extension : Intensity Stereo + MS Stereo
    Duration : 1h 27mn
    Bit rate mode : Constant
    Bit rate : 192 Kbps
    Channel(s) : 2 channels
    Sampling rate : 48.0 KHz
    Compression mode : Lossy
    Delay relative to video : 110ms
    Stream size : 120 MiB (5%)

    Скриншоты

    Скачать .torrent

    Скачать торрент-файл бесплатно и на максимальной скорости!

    Как скачивать? · Что такое торрент? · Рейтинг и ограничения

    !ВНИМАНИЕ!
    Сайт не распространяет и не хранит электронные версии произведений, а занимается лишь лишь предоставлением доступа к создаваемому пользователями каталогу ссылок на торрент-файлы, которые содержат только списки хеш-сумм, убедительная просьба с жалобами обращаться напрямую к пользователю. Файлы для обмена на трекере предоставлены пользователями сайта, и администрация не несёт ответственности за их содержание. Просьба не заливать файлы, защищенные авторскими правами, а также файлы нелегального содержания!


    _________________
    [Профиль] [ЛС]
    Показать сообщения:    
    Ответить на тему

    Текущее время: Сегодня, в 00:04

    Часовой пояс: GMT + 2



    Вы не можете начинать темы
    Вы не можете отвечать на сообщения
    Вы не можете редактировать свои сообщения
    Вы не можете удалять свои сообщения
    Вы не можете голосовать в опросах
    Вы не можете прикреплять файлы к сообщениям
    Вы не можете скачивать файлы