BitTorrentTracker PerecTracker.org
BitTorrentTracker PerecTracker.org
    
Регистрация  ·  Вход
 
 · 
Забыли пароль?

  • Сильные духом (Виктор Георгиев) [1967, военный, DVDRip]

    Ответить на тему
     
    Автор Сообщение

    Light

    Создавать темы 08-Дек-2015 23:09

           

    [Цитировать]

    Сильные духом (2 серии)
    Жанр: Военный
    Год выпуска: 1967
    Продолжительность: 02:52:40
    Режиссёр: Виктор Георгиев
    Сценарий: Анатолий Гребнев, Александр Лукин, Дмитрий Медведев
    Композитор: Эдисон Денисов
    В ролях: Гунар Цилинский, Иван Переверзев, Евгений Весник, Люсьена Овчинникова, Юрий Соломин, Вия Артмане, Виктория Федорова, Александр Галевский, Юрий Боголюбов, Юрий Волков, Даниил Нетребин, Паул Буткевич, Андрей Файт, Петр Соболевский, Анатолий Ромашин
    Описание: Подлинная история о советском разведчике Николае Кузнецове, который в тылу врага на Украине , проник в дом рейхслейтера Эриха Коха, похитил командующего карательными войсками и привел в исполнение приговор народа, казнив имперского советника...
    Доп. информация: Данный рип 2-х-серийного фильма сделан одним файлом

    Формат видео: AVI
    Качество видео: DVDRip (DVD9)
    Видео кодек: XviD
    Аудио кодек: MP3
    Видео: XviD, 640x480, 25fps, 1066kbps
    Аудио: MPEG Layer 3, 2ch, 48000Hz, 128kbps

    MediaInfo

    General
    Complete name : Silnye.Duhom.1967.O.DVDRip.1400.MediaClub.CurHaJI.avi
    Format : AVI
    Format/Info : Audio Video Interleave
    File size : 1.45 GiB
    Duration : 2h 52mn
    Overall bit rate : 1 204 Kbps
    Movie name : Silnye.Duhom.1967.O.DVDRip.1400.MediaClub.CurHaJI
    Writing application : VirtualDubMod 1.5.10.3 | www.virtualdub-fr.org || (build 2550/release)
    Writing library : VirtualDub build 35491/release
    Video
    ID : 0
    Format : MPEG-4 Visual
    Format profile : Advanced Simple@L5
    Format settings, BVOP : 2
    Format settings, QPel : No
    Format settings, GMC : No warppoints
    Format settings, Matrix : Custom
    Codec ID : XVID
    Codec ID/Hint : XviD
    Duration : 2h 52mn
    Bit rate : 1 066 Kbps
    Width : 640 pixels
    Height : 480 pixels
    Display aspect ratio : 4:3
    Frame rate : 25.000 fps
    Color space : YUV
    Chroma subsampling : 4:2:0
    Bit depth : 8 bits
    Scan type : Progressive
    Compression mode : Lossy
    Bits/(Pixel*Frame) : 0.139
    Stream size : 1.29 GiB (89%)
    Writing library : XviD 1.2.1 (UTC 2008-12-04)
    Audio
    ID : 1
    Format : MPEG Audio
    Format version : Version 1
    Format profile : Layer 3
    Codec ID : 55
    Codec ID/Hint : MP3
    Duration : 2h 52mn
    Bit rate mode : Constant
    Bit rate : 128 Kbps
    Channel(s) : 2 channels
    Sampling rate : 48.0 KHz
    Compression mode : Lossy
    Stream size : 158 MiB (11%)
    Alignment : Aligned on interleaves
    Interleave, duration : 40 ms (1.00 video frame)
    Interleave, preload duration : 504 ms

    Скриншоты

    Скачать .torrent

    Скачать торрент-файл бесплатно и на максимальной скорости!

    Как скачивать? · Что такое торрент? · Рейтинг и ограничения

    !ВНИМАНИЕ!
    Сайт не распространяет и не хранит электронные версии произведений, а занимается лишь лишь предоставлением доступа к создаваемому пользователями каталогу ссылок на торрент-файлы, которые содержат только списки хеш-сумм, убедительная просьба с жалобами обращаться напрямую к пользователю. Файлы для обмена на трекере предоставлены пользователями сайта, и администрация не несёт ответственности за их содержание. Просьба не заливать файлы, защищенные авторскими правами, а также файлы нелегального содержания!


    _________________
    [Профиль] [ЛС]
    Показать сообщения:    
    Ответить на тему

    Текущее время: Сегодня, в 04:20

    Часовой пояс: GMT + 2



    Вы не можете начинать темы
    Вы не можете отвечать на сообщения
    Вы не можете редактировать свои сообщения
    Вы не можете удалять свои сообщения
    Вы не можете голосовать в опросах
    Вы не можете прикреплять файлы к сообщениям
    Вы не можете скачивать файлы