BitTorrentTracker PerecTracker.org
BitTorrentTracker PerecTracker.org
    
Регистрация  ·  Вход
 
 · 
Забыли пароль?

  • Морской волк (4 серии) (Игорь Апасян) [1990, драма, DVB]

    Ответить на тему
     
    Автор Сообщение

    Light

    Создавать темы 08-Дек-2015 23:09

           

    [Цитировать]

    Морской волк (4 серии)
    Жанр: драма
    Год выпуска: 1990
    Продолжительность: 01:29:41 + 01:04:20 + 01:00:55 + 01:08:53
    Режиссёр: Игорь Апасян
    В ролях: Любомирас Лауцявичюс, Андрей Руденский, Игорь Богодух, Игорь Божко, Мартиньш Вилсонс, Вадим Вильский, Виктор Гайнов, Николай Ерофеев, Сергей Королев, Игорь Лопухин-Полковник, Рудольф Мухин, Виктор Павловский, Алексей Серебряков, Анатолий Сливников, Елена Финогеева, Николай Чиндяйкин, Юрий Эллер
    Описание: По мотивам одноимённого романа Джека Лондона.
    Молодой литератор Хэмфри Ван-Вейден решил навестить друга. На пароме "Мартинес" он отплавает из Сан-Франциско на другую сторону залива. В тумане паром сталкиваются с большим судном и за считанные минуты тонет. Оказавшись в воде, Хэмфри быстро обессилел. Спасение пришло неожиданно. С проходящей мимо шхуны случайно заметили человека в воде. Так Хэмфри оказался на борту рыболовецкой шхуны "Призрак", которой командовал капитан "Волк" Ларсен....
    Доп. информация: Запись потока *.ts со спутника Ямал 402, 55° в.д., ремукс в *.mpg программой VideoReDo.
    Качество видео: DVB
    Формат видео: MPEG-PS
    Видео: MPEG Video, 720(768)x576 (4:3), 25,000 кадров/сек, 4 424 Кбит/сек
    Аудио: MPEG Audio, 48,0 КГц, 192 Кбит/сек, 2 канала

    MediaInfo

    Общее
    Полное имя : D:\Torrent\МОРСКОЙ ВОЛК\МОРСКОЙ ВОЛК 1 (Zvezda 55).mpg
    Формат : MPEG-PS
    Размер файла : 2,95 Гбайт
    Продолжительность : 1 ч. 29 м.
    Режим общего битрейта : Переменный
    Общий поток : 4710 Кбит/сек
    Видео
    Идентификатор : 224 (0xE0)
    Формат : MPEG Video
    Версия формата : Version 2
    Профиль формата : Main@Main
    Параметр BVOP формата : Да
    Параметр матрицы формата : Выборочная
    Параметр GOP формата : M=3, N=12
    Format_Settings_PictureStructure : Frame
    Продолжительность : 1 ч. 29 м.
    Вид битрейта : Переменный
    Битрейт : 4425 Кбит/сек
    Максимальный битрейт : 15,0 Мбит/сек
    Ширина : 720 пикселей
    Высота : 576 пикселей
    Соотношение сторон : 4:3
    Частота кадров : 25,000 кадров/сек
    Стандарт вещания : PAL
    Цветовое пространство : YUV
    Субдискретизация насыщенности : 4:2:0
    Битовая глубина : 8 бит
    Тип развёртки : Чересстрочная
    Порядок развёртки : Верхнее поле первое
    Метод сжатия : С потерями
    Бит/(Пиксели*Кадры) : 0.427
    Временной код первого кадра : 00:00:00:00
    Оригинал временного кода : Group of pictures header
    Размер потока : 2,77 Гбайт (94%)
    Аудио
    Идентификатор : 192 (0xC0)
    Формат : MPEG Audio
    Версия формата : Version 1
    Профиль формата : Layer 2
    Продолжительность : 1 ч. 29 м.
    Вид битрейта : Постоянный
    Битрейт : 192 Кбит/сек
    Каналы : 2 канала
    Частота : 48,0 КГц
    Метод сжатия : С потерями
    Задержка видео : 7 мс.
    Размер потока : 123 Мбайт (4%)
    Общее
    Полное имя : D:\Torrent\МОРСКОЙ ВОЛК\МОРСКОЙ ВОЛК 2 (Zvezda 55).mpg
    Формат : MPEG-PS
    Размер файла : 2,12 Гбайт
    Продолжительность : 1 ч. 4 м.
    Режим общего битрейта : Переменный
    Общий поток : 4711 Кбит/сек
    Видео
    Идентификатор : 224 (0xE0)
    Формат : MPEG Video
    Версия формата : Version 2
    Профиль формата : Main@Main
    Параметр BVOP формата : Да
    Параметр матрицы формата : Выборочная
    Параметр GOP формата : M=3, N=12
    Format_Settings_PictureStructure : Frame
    Продолжительность : 1 ч. 4 м.
    Вид битрейта : Переменный
    Битрейт : 4425 Кбит/сек
    Максимальный битрейт : 15,0 Мбит/сек
    Ширина : 720 пикселей
    Высота : 576 пикселей
    Соотношение сторон : 4:3
    Частота кадров : 25,000 кадров/сек
    Стандарт вещания : PAL
    Цветовое пространство : YUV
    Субдискретизация насыщенности : 4:2:0
    Битовая глубина : 8 бит
    Тип развёртки : Чересстрочная
    Порядок развёртки : Верхнее поле первое
    Метод сжатия : С потерями
    Бит/(Пиксели*Кадры) : 0.427
    Временной код первого кадра : 00:00:00:00
    Оригинал временного кода : Group of pictures header
    Размер потока : 1,99 Гбайт (94%)
    Аудио
    Идентификатор : 192 (0xC0)
    Формат : MPEG Audio
    Версия формата : Version 1
    Профиль формата : Layer 2
    Продолжительность : 1 ч. 4 м.
    Вид битрейта : Постоянный
    Битрейт : 192 Кбит/сек
    Каналы : 2 канала
    Частота : 48,0 КГц
    Метод сжатия : С потерями
    Задержка видео : 15 мс.
    Размер потока : 88,4 Мбайт (4%)
    Общее
    Полное имя : D:\Torrent\МОРСКОЙ ВОЛК\МОРСКОЙ ВОЛК 3 (Zvezda 55) (02).mpg
    Формат : MPEG-PS
    Размер файла : 2,00 Гбайт
    Продолжительность : 1 ч. 0 м.
    Режим общего битрейта : Переменный
    Общий поток : 4710 Кбит/сек
    Видео
    Идентификатор : 224 (0xE0)
    Формат : MPEG Video
    Версия формата : Version 2
    Профиль формата : Main@Main
    Параметр BVOP формата : Да
    Параметр матрицы формата : Выборочная
    Параметр GOP формата : M=3, N=12
    Format_Settings_PictureStructure : Frame
    Продолжительность : 1 ч. 0 м.
    Вид битрейта : Переменный
    Битрейт : 4425 Кбит/сек
    Максимальный битрейт : 15,0 Мбит/сек
    Ширина : 720 пикселей
    Высота : 576 пикселей
    Соотношение сторон : 4:3
    Частота кадров : 25,000 кадров/сек
    Стандарт вещания : PAL
    Цветовое пространство : YUV
    Субдискретизация насыщенности : 4:2:0
    Битовая глубина : 8 бит
    Тип развёртки : Чересстрочная
    Порядок развёртки : Верхнее поле первое
    Метод сжатия : С потерями
    Бит/(Пиксели*Кадры) : 0.427
    Временной код первого кадра : 00:00:00:00
    Оригинал временного кода : Group of pictures header
    Размер потока : 1,88 Гбайт (94%)
    Аудио
    Идентификатор : 192 (0xC0)
    Формат : MPEG Audio
    Версия формата : Version 1
    Профиль формата : Layer 2
    Продолжительность : 1 ч. 0 м.
    Вид битрейта : Постоянный
    Битрейт : 192 Кбит/сек
    Каналы : 2 канала
    Частота : 48,0 КГц
    Метод сжатия : С потерями
    Задержка видео : 15 мс.
    Размер потока : 83,7 Мбайт (4%)
    Общее
    Полное имя : D:\Torrent\МОРСКОЙ ВОЛК\МОРСКОЙ ВОЛК 4 (Zvezda 55).mpg
    Формат : MPEG-PS
    Размер файла : 2,27 Гбайт
    Продолжительность : 1 ч. 8 м.
    Режим общего битрейта : Переменный
    Общий поток : 4710 Кбит/сек
    Видео
    Идентификатор : 224 (0xE0)
    Формат : MPEG Video
    Версия формата : Version 2
    Профиль формата : Main@Main
    Параметр BVOP формата : Да
    Параметр матрицы формата : Выборочная
    Параметр GOP формата : M=3, N=12
    Format_Settings_PictureStructure : Frame
    Продолжительность : 1 ч. 8 м.
    Вид битрейта : Переменный
    Битрейт : 4425 Кбит/сек
    Максимальный битрейт : 15,0 Мбит/сек
    Ширина : 720 пикселей
    Высота : 576 пикселей
    Соотношение сторон : 4:3
    Частота кадров : 25,000 кадров/сек
    Стандарт вещания : PAL
    Цветовое пространство : YUV
    Субдискретизация насыщенности : 4:2:0
    Битовая глубина : 8 бит
    Тип развёртки : Чересстрочная
    Порядок развёртки : Верхнее поле первое
    Метод сжатия : С потерями
    Бит/(Пиксели*Кадры) : 0.427
    Временной код первого кадра : 00:00:00:00
    Оригинал временного кода : Group of pictures header
    Размер потока : 2,13 Гбайт (94%)
    Аудио
    Идентификатор : 192 (0xC0)
    Формат : MPEG Audio
    Версия формата : Version 1
    Профиль формата : Layer 2
    Продолжительность : 1 ч. 8 м.
    Вид битрейта : Постоянный
    Битрейт : 192 Кбит/сек
    Каналы : 2 канала
    Частота : 48,0 КГц
    Метод сжатия : С потерями
    Задержка видео : 7 мс.
    Размер потока : 94,6 Мбайт (4%)

    Скриншоты

    Скачать .torrent

    Скачать торрент-файл бесплатно и на максимальной скорости!

    Как скачивать? · Что такое торрент? · Рейтинг и ограничения

    !ВНИМАНИЕ!
    Сайт не распространяет и не хранит электронные версии произведений, а занимается лишь лишь предоставлением доступа к создаваемому пользователями каталогу ссылок на торрент-файлы, которые содержат только списки хеш-сумм, убедительная просьба с жалобами обращаться напрямую к пользователю. Файлы для обмена на трекере предоставлены пользователями сайта, и администрация не несёт ответственности за их содержание. Просьба не заливать файлы, защищенные авторскими правами, а также файлы нелегального содержания!


    _________________
    [Профиль] [ЛС]
    Показать сообщения:    
    Ответить на тему

    Текущее время: Сегодня, в 12:09

    Часовой пояс: GMT + 2



    Вы не можете начинать темы
    Вы не можете отвечать на сообщения
    Вы не можете редактировать свои сообщения
    Вы не можете удалять свои сообщения
    Вы не можете голосовать в опросах
    Вы не можете прикреплять файлы к сообщениям
    Вы не можете скачивать файлы