BitTorrentTracker PerecTracker.org
BitTorrentTracker PerecTracker.org
    
Регистрация  ·  Вход
 
 · 
Забыли пароль?

  • Это мы не проходили (Илья Фрэз) [1975 г., лирическая комедия, DVB]

    Ответить на тему
     
    Автор Сообщение

    Light

    Создавать темы 08-Дек-2015 23:09

           

    [Цитировать]

    Это мы не проходили
    Жанр: лирическая комедия
    Год выпуска: 1975
    Продолжительность: 01:33:26
    Режиссёры: Илья Фрэз
    В ролях: Наталья Рычагова, Борис Токарев, Татьяна Канаева, Андрей Ростоцкий, Ирина Калиновская, Антонина Максимова, Татьяна Пельтцер, Роман Ткачук, Наталья Защипина, Раиса Рязанова, Вера Орлова, Евгений Весник, Люсьена Овчинникова, Вера Васильева
    Описание: только что закончившие педагогический вуз студенты отправляются на практику. Им предстоит впервые без помощи и поддержки своих преподавателей применить свои знания и осознать, насколько реальная жизнь отличается от той, что описана в учебниках. Молодые педагоги будут обучать настоящих школьников, зачастую не вписывающихся в общие рамки студенческих дисциплин. Такая школа жизни позволит им проверить свои способности и силу желания стать настоящим педагогом для детей. Смогут ли они стать не просто примером, но направляющей силой для юного поколения? Или же сдадутся при первой же трудности, ответив всем «это мы не проходили»?
    Доп. информация:

    Семпл: https://yadi.sk/i/rzHvXuZrePU42
    Качество видео: DVB (Yamal 402 at 54.9°E)
    Формат видео: MPEG-PS
    Видео: MPEG2 Video, 720x576 (4:3), 25 fps, 4500 kbps
    Аудио: MPEG Audiо, 2 сh, 48 kHz, 192 kbps

    MediaInfo

    G:\Это мы не проходили. (1975)_DVB by SLuMeP.mpg
    General
    Complete name : G:\Это мы не проходили. (1975)_DVB by SLuMeP.mpg
    Format : MPEG-PS
    File size : 3.11 GiB
    Duration : 1h 33mn
    Overall bit rate mode : Variable
    Overall bit rate : 4 745 Kbps
    Writing library : (dvd5: Jun 16 2014)
    Video #224
    ID : 224 (0xE0)
    Format : MPEG Video
    Format version : Version 2
    Format profile : Main@Main
    Format settings, BVOP : Yes
    Format settings, Matrix : Custom
    Format settings, GOP : M=3, N=12
    Duration : 1h 33mn
    Bit rate mode : Variable
    Bit rate : 4 458 Kbps
    Maximum bit rate : 15.0 Mbps
    Width : 720 pixels
    Height : 576 pixels
    Display aspect ratio : 4:3
    Frame rate : 25.000 fps
    Standard : PAL
    Color space : YUV
    Chroma subsampling : 4:2:0
    Bit depth : 8 bits
    Scan type : Interlaced
    Scan order : Top Field First
    Compression mode : Lossy
    Bits/(Pixel*Frame) : 0.430
    Time code of first frame : 00:00:00:00
    Time code source : Group of pictures header
    Stream size : 2.92 GiB (94%)
    Source encoded stream size : (dvd5: Jun 16 2014)
    Writing library : (dvd5: Jun 16 2014)
    Audio #192
    ID : 192 (0xC0)
    Format : MPEG Audio
    Format version : Version 1
    Format profile : Layer 2
    Duration : 1h 33mn
    Bit rate mode : Constant
    Bit rate : 192 Kbps
    Channel(s) : 2 channels
    Sampling rate : 48.0 KHz
    Compression mode : Lossy
    Stream size : 129 MiB (4%)
    Menu

    Скриншоты


    Скачать .torrent

    Скачать торрент-файл бесплатно и на максимальной скорости!

    Как скачивать? · Что такое торрент? · Рейтинг и ограничения

    !ВНИМАНИЕ!
    Сайт не распространяет и не хранит электронные версии произведений, а занимается лишь лишь предоставлением доступа к создаваемому пользователями каталогу ссылок на торрент-файлы, которые содержат только списки хеш-сумм, убедительная просьба с жалобами обращаться напрямую к пользователю. Файлы для обмена на трекере предоставлены пользователями сайта, и администрация не несёт ответственности за их содержание. Просьба не заливать файлы, защищенные авторскими правами, а также файлы нелегального содержания!


    _________________
    [Профиль] [ЛС]
    Показать сообщения:    
    Ответить на тему

    Текущее время: Сегодня, в 10:55

    Часовой пояс: GMT + 2



    Вы не можете начинать темы
    Вы не можете отвечать на сообщения
    Вы не можете редактировать свои сообщения
    Вы не можете удалять свои сообщения
    Вы не можете голосовать в опросах
    Вы не можете прикреплять файлы к сообщениям
    Вы не можете скачивать файлы