Register  ·  Log in
Forgot password?

  • Сильные духом (Виктор Георгиев) [1967, военный, DVDRip]

    Reply to topic
    Author Message


    Post 09-Dec-2015 00:09



    Сильные духом (2 серии)
    Жанр: Военный
    Год выпуска: 1967
    Продолжительность: 02:52:40
    Режиссёр: Виктор Георгиев
    Сценарий: Анатолий Гребнев, Александр Лукин, Дмитрий Медведев
    Композитор: Эдисон Денисов
    В ролях: Гунар Цилинский, Иван Переверзев, Евгений Весник, Люсьена Овчинникова, Юрий Соломин, Вия Артмане, Виктория Федорова, Александр Галевский, Юрий Боголюбов, Юрий Волков, Даниил Нетребин, Паул Буткевич, Андрей Файт, Петр Соболевский, Анатолий Ромашин
    Описание: Подлинная история о советском разведчике Николае Кузнецове, который в тылу врага на Украине , проник в дом рейхслейтера Эриха Коха, похитил командующего карательными войсками и привел в исполнение приговор народа, казнив имперского советника...
    Доп. информация: Данный рип 2-х-серийного фильма сделан одним файлом

    Формат видео: AVI
    Качество видео: DVDRip (DVD9)
    Видео кодек: XviD
    Аудио кодек: AC3
    Видео: XviD, 704x528, 25fps, 2206kbps
    Аудио: AC3 Dolby Digital, 2ch, 48000Hz, 192kbps


    Complete name : Silnye.Duhom.1967.O.DVDRip.2800.MediaClub.CurHaJI.avi
    Format : AVI
    Format/Info : Audio Video Interleave
    Format profile : OpenDML
    File size : 2.89 GiB
    Duration : 2h 52mn
    Overall bit rate : 2 399 Kbps
    Movie name : Silnye.Duhom.1967.O.DVDRip.2800.MediaClub.CurHaJI
    Writing application : VirtualDubMod | || (build 2550/release)
    Writing library : VirtualDub build 35491/release
    ID : 0
    Format : MPEG-4 Visual
    Format profile : Advanced Simple@L5
    Format settings, BVOP : 2
    Format settings, QPel : No
    Format settings, GMC : No warppoints
    Format settings, Matrix : Custom
    Codec ID : XVID
    Codec ID/Hint : XviD
    Duration : 2h 52mn
    Bit rate : 2 206 Kbps
    Width : 704 pixels
    Height : 528 pixels
    Display aspect ratio : 4:3
    Frame rate : 25.000 fps
    Color space : YUV
    Chroma subsampling : 4:2:0
    Bit depth : 8 bits
    Scan type : Progressive
    Compression mode : Lossy
    Bits/(Pixel*Frame) : 0.236
    Stream size : 2.65 GiB (92%)
    Writing library : XviD 1.2.1 (UTC 2008-12-04)
    ID : 1
    Format : AC-3
    Format/Info : Audio Coding 3
    Mode extension : CM (complete main)
    Format settings, Endianness : Big
    Codec ID : 2000
    Duration : 2h 52mn
    Bit rate mode : Constant
    Bit rate : 192 Kbps
    Channel(s) : 2 channels
    Channel positions : Front: L R
    Sampling rate : 48.0 KHz
    Bit depth : 16 bits
    Compression mode : Lossy
    Delay relative to video : 8ms
    Stream size : 237 MiB (8%)
    Alignment : Split accross interleaves
    Interleave, duration : 40 ms (1.00 video frame)
    Interleave, preload duration : 500 ms


    Download .torrent

    Download free and at maximum speed!

    How to Download? · What is a torrent? · Ratings and Limitations

    The site does not extend and does not store electronic(digital) versions of products, and only gives access to a reference catalogue created by users on torrent-files which contain only lists of the hash-sums, the earnest entreaty, with complaints(abuse) to access directly to the user. Files for an exchange on tracker are given by users of a site, and the administration does not bear the responsibility for their maintenance. The request to not fill in the files protected by copyrights, and also files of the illegal maintenance!

    [Profile] [PM]
    Display posts from previous:    
    Reply to topic

    The time now is: Today 00:52

    All times are GMT + 3 Hours

    You cannot post new topics in this forum
    You cannot reply to topics in this forum
    You cannot edit your posts in this forum
    You cannot delete your posts in this forum
    You cannot vote in polls in this forum
    You cannot attach files in this forum
    You cannot download files in this forum