BitTorrentTracker PerecTracker.org
BitTorrentTracker PerecTracker.org
    
Регистрация  ·  Вход
 
 · 
Забыли пароль?

  • Дама с собачкой (Иосиф Хейфиц) [1960, драма, DVDRip-AVC]

    Ответить на тему
     
    Автор Сообщение

    Light

    Создавать темы 08-Дек-2015 23:09

           

    [Цитировать]

    Дама с собачкой-Жанр: драма
    Год выпуска: 1960
    Продолжительность: 01:24:21
    Cубтитры: русские-Режиссёр: Иосиф Хейфиц-В ролях:
    Ия Саввина, Алексей Баталов, Нина Алисова, Дмитрий Зебров, Пантелеймон Крымов, Юрий Медведев, Михаил Розанов, Юрий Свирин, Владимир Эренберг, Галина Барышева, Кирилл Гун, Зинаида Дорогова, Михаил Иванов, Георгий Куровский, Светлана Мазовецкая, Александр Орлов, Павел Первушин, Мария Сафонова, Лев Степанов
    Описание:
    По одноименной повести А.П.Чехова. Случайное знакомство на отдыхе в Ялте Гурова и Анны Сергеевны перерастает в глубокое чувство. Их общение вдали от дома открывает перед обоими новый мир, полный иллюзорных надежд на совместное будущее. Но он женат, и у неё своя семья…-Исходник | Сэмпл | Кинопоиск-Качество видео: DVDRip-AVC, благодарю VANGA за исходный DVD.
    Формат видео: MKV
    Видео: x264 (High@L4.1); 708@755x556, Display aspect ratio 1.358:1, 25.000 fps, 2240 Kbps
    Аудио 1: Оригинал: AC-3; 16 bits 48 Khz; Mono 224 Kbps; CBR
    Аудио 2: AC-3; 16 bits 48 Khz; 5.1 ch 448 Kbps; CBR (отдельно)
    Формат субтитров: softsub (SRT)
    MediaInfo

    -

    x264 log

    avs [info]: 708x556p 16:15 @ 25/1 fps (cfr)
    x264 [info]: using SAR=16/15
    x264 [info]: using cpu capabilities: MMX2 SSE2Fast SSSE3 SSE4.2
    x264 [info]: profile High, level 4.1
    x264 [info]: frame I:613 Avg QP:16.76 size: 46031
    x264 [info]: frame P:24713 Avg QP:19.00 size: 25866
    x264 [info]: frame B:101217 Avg QP:22.31 size: 7406
    x264 [info]: consecutive B-frames: 0.9% 1.1% 6.4% 11.4% 7.3% 71.1% 1.6% 0.1%
    x264 [info]: mb I I16..4: 6.3% 81.8% 11.9%
    x264 [info]: mb P I16..4: 0.5% 10.6% 1.0% P16..4: 31.7% 36.7% 15.5% 1.2% 0.1% skip: 2.8%
    x264 [info]: mb B I16..4: 0.0% 1.6% 0.1% B16..8: 35.6% 18.6% 2.9% direct: 6.9% skip:34.2% L0:37.7% L1:42.4% BI:19.9%
    x264 [info]: 8x8 transform intra:87.8% inter:67.1%
    x264 [info]: direct mvs spatial:99.1% temporal:0.9%
    x264 [info]: coded y,uvDC,uvAC intra: 91.0% 0.0% 0.0% inter: 29.8% 0.0% 0.0%
    x264 [info]: i16 v,h,dc,p: 42% 13% 8% 37%
    x264 [info]: i8 v,h,dc,ddl,ddr,vr,hd,vl,hu: 10% 10% 9% 10% 13% 12% 12% 12% 12%
    x264 [info]: i4 v,h,dc,ddl,ddr,vr,hd,vl,hu: 11% 28% 5% 7% 11% 11% 9% 9% 10%
    x264 [info]: i8c dc,h,v,p: 43% 57% 0% 0%
    x264 [info]: Weighted P-Frames: Y:43.8% UV:0.0%
    x264 [info]: ref P L0: 38.6% 10.6% 14.5% 7.3% 5.3% 4.5% 3.8% 2.3% 2.1% 1.9% 1.7% 1.7% 1.5% 1.5% 1.5% 1.1%
    x264 [info]: ref B L0: 80.5% 8.5% 3.0% 1.7% 1.2% 1.1% 0.8% 0.6% 0.5% 0.5% 0.4% 0.4% 0.4% 0.3% 0.2%
    x264 [info]: ref B L1: 96.1% 3.9%
    x264 [info]: kb/s:2239.58
    x264 [total]: encoded 126543 frames, 12.96 fps, 2239.58 kb/s
    -General
    Unique ID : 181108605722102230523169561527002241997 (0x88403FAA73B94BCCB6713BB22B969BCD)
    Complete name : Дама с собачкой.1960.mkv
    Format : Matroska
    Format version : Version 2
    File size : 1.45 GiB
    Duration : 1h 24mn
    Overall bit rate : 2 465 Kbps
    Movie name : «Дама с собачкой»
    Encoded date : UTC 2015-02-09 11:35:26
    Writing application : mkvmerge v5.8.0 ('No Sleep / Pillow') built on Sep 2 2012 15:37:04
    Writing library : libebml v1.2.3 + libmatroska v1.3.0
    Comment : DVDRip-AVC
    Originally released : Febuary 7th 2015
    Encoded by : george$t®
    Video
    ID : 1
    Format : AVC
    Format/Info : Advanced Video Codec
    Format profile : High@L4.1
    Format settings, CABAC : Yes
    Format settings, ReFrames : 16 frames
    Codec ID : V_MPEG4/ISO/AVC
    Duration : 1h 24mn
    Bit rate : 2 240 Kbps
    Width : 708 pixels
    Height : 556 pixels
    Display aspect ratio : 4:3
    Frame rate mode : Constant
    Frame rate : 25.000 fps
    Color space : YUV
    Chroma subsampling : 4:2:0
    Bit depth : 8 bits
    Scan type : Progressive
    Bits/(Pixel*Frame) : 0.228
    Stream size : 1.29 GiB (89%)
    Title : Дама с собачкой.1960
    Writing library : x264 core 130 r2273 b3065e6
    Encoding settings : cabac=1 / ref=16 / deblock=1:-1:-1 / analyse=0x3:0x133 / me=umh / subme=11 / psy=1 / psy_rd=1.00:0.00 / mixed_ref=1 / me_range=48 / chroma_me=1 / trellis=2 / 8x8dct=1 / cqm=0 / deadzone=21,11 / fast_pskip=0 / chroma_qp_offset=-2 / threads=12 / lookahead_threads=2 / sliced_threads=0 / nr=0 / decimate=0 / interlaced=0 / bluray_compat=0 / constrained_intra=0 / bframes=7 / b_pyramid=2 / b_adapt=2 / b_bias=0 / direct=3 / weightb=1 / open_gop=0 / weightp=2 / keyint=250 / keyint_min=25 / scenecut=40 / intra_refresh=0 / rc_lookahead=60 / rc=2pass / mbtree=1 / bitrate=2240 / ratetol=1.0 / qcomp=0.65 / qpmin=0 / qpmax=69 / qpstep=4 / cplxblur=20.0 / qblur=0.5 / vbv_maxrate=50000 / vbv_bufsize=62500 / nal_hrd=none / ip_ratio=1.30 / aq=1:0.80
    Language : Russian
    Default : Yes
    Forced : No
    Color primaries : BT.601 PAL
    Transfer characteristics : BT.470 System B, BT.470 System G
    Matrix coefficients : BT.601
    Color range : Limited
    Audio
    ID : 2
    Format : AC-3
    Format/Info : Audio Coding 3
    Mode extension : CM (complete main)
    Format settings, Endianness : Big
    Codec ID : A_AC3
    Duration : 1h 24mn
    Bit rate mode : Constant
    Bit rate : 224 Kbps
    Channel(s) : 1 channel
    Channel positions : Front: C
    Sampling rate : 48.0 KHz
    Bit depth : 16 bits
    Compression mode : Lossy
    Stream size : 135 MiB (9%)
    Title : Оригинал: AC-3; 16 bit 48 Khz; Mono 224 Kbps; CBR
    Language : Russian
    Default : Yes
    Forced : No
    Text
    ID : 3
    Format : UTF-8
    Codec ID : S_TEXT/UTF8
    Codec ID/Info : UTF-8 Plain Text
    Title : Субтитры русские
    Language : Russian
    Default : No
    Forced : No
    Menu
    00:00:00.000 : ru:1. Знакомство
    00:11:51.360 : ru:2. Курортный роман
    00:26:31.200 : ru:3. Расставание
    00:33:36.480 : ru:4. Московская жизнь
    00:39:33.120 : ru:5. Тоска
    00:55:42.720 : ru:6. В Саратове
    01:01:28.320 : ru:7. Встреча в театре
    01:09:08.640 : ru:8. Тайное свидание

    Скриншоты

    vs. source
    Скачать .torrent

    Скачать торрент-файл бесплатно и на максимальной скорости!

    Как скачивать? · Что такое торрент? · Рейтинг и ограничения

    !ВНИМАНИЕ!
    Сайт не распространяет и не хранит электронные версии произведений, а занимается лишь лишь предоставлением доступа к создаваемому пользователями каталогу ссылок на торрент-файлы, которые содержат только списки хеш-сумм, убедительная просьба с жалобами обращаться напрямую к пользователю. Файлы для обмена на трекере предоставлены пользователями сайта, и администрация не несёт ответственности за их содержание. Просьба не заливать файлы, защищенные авторскими правами, а также файлы нелегального содержания!


    _________________
    [Профиль] [ЛС]
    Показать сообщения:    
    Ответить на тему

    Текущее время: Сегодня, в 04:11

    Часовой пояс: GMT + 2



    Вы не можете начинать темы
    Вы не можете отвечать на сообщения
    Вы не можете редактировать свои сообщения
    Вы не можете удалять свои сообщения
    Вы не можете голосовать в опросах
    Вы не можете прикреплять файлы к сообщениям
    Вы не можете скачивать файлы