Register  ·  Log in
Forgot password?

  • Посвящённый (Олег Тепцов) [1989, фантасмагория, мистика, драма, VHSRip]

    Reply to topic
    Author Message


    Post 09-Dec-2015 00:09



    Посвящённый / Полная версия
    Жанр: фантасмагория, мистика, драма
    Год выпуска: 1989
    Продолжительность: 01:59:45
    Режиссёр: Олег Тепцов
    В ролях: Гор Оганисян, Любовь Полищук, Александр Трофимов, Елена Брагина, Габриэль Воробьёв, Владимир Симонов, Сергей Маковецкий, Ольга Самошина, Владимир Юрьев, Давид Оганисян
    Описание: Молодой человек стал обладателем удивительного и странного дара — способности судить людей и карать их силой собственного духа. Удастся ли ему правильно воспользоваться этим даром?
    Качество видео: VHSRip (TV-VHSRip/alexwonder2006)
    Формат видео: AVI
    Видео: 640x480 (1.33:1), 25 fps, XviD build 65 ~1606 kbps avg, 0.21 bit/pixel
    Аудио: 48 kHz, MPEG Layer 3, 2 ch, ~128.00 kbps avg


    Complete name : C:\Users\ALEX\Downloads\Фильмы\Посвящённый.Полная версия.1989.TV-VHSRip.XviD.MPEG Audio.avi
    Format : AVI
    Format/Info : Audio Video Interleave
    File size : 1.46 GiB
    Duration : 1h 59mn
    Overall bit rate : 1 744 Kbps
    Writing application : VirtualDubMod (build 2542/release)
    Writing library : VirtualDubMod build 2542/release
    ID : 0
    Format : MPEG-4 Visual
    Format profile : Advanced Simple@L5
    Format settings, BVOP : 1
    Format settings, QPel : No
    Format settings, GMC : No warppoints
    Format settings, Matrix : Custom
    Codec ID : XVID
    Codec ID/Hint : XviD
    Duration : 1h 59mn
    Bit rate : 1 606 Kbps
    Width : 640 pixels
    Height : 480 pixels
    Display aspect ratio : 4:3
    Frame rate : 25.000 fps
    Color space : YUV
    Chroma subsampling : 4:2:0
    Bit depth : 8 bits
    Scan type : Progressive
    Compression mode : Lossy
    Bits/(Pixel*Frame) : 0.209
    Stream size : 1.34 GiB (92%)
    Writing library : XviD 65
    ID : 1
    Format : MPEG Audio
    Format version : Version 1
    Format profile : Layer 3
    Mode : Joint stereo
    Mode extension : MS Stereo
    Codec ID : 55
    Codec ID/Hint : MP3
    Duration : 1h 59mn
    Bit rate mode : Constant
    Bit rate : 128 Kbps
    Channel(s) : 2 channels
    Sampling rate : 48.0 KHz
    Compression mode : Lossy
    Stream size : 110 MiB (7%)
    Alignment : Aligned on interleaves
    Interleave, duration : 40 ms (1.00 video frame)
    Interleave, preload duration : 504 ms
    Writing library : LAME3.99r
    Encoding settings : -m j -V 4 -q 2 -lowpass 17 -b 128


    Download .torrent

    Download free and at maximum speed!

    How to Download? · What is a torrent? · Ratings and Limitations

    The site does not extend and does not store electronic(digital) versions of products, and only gives access to a reference catalogue created by users on torrent-files which contain only lists of the hash-sums, the earnest entreaty, with complaints(abuse) to access directly to the user. Files for an exchange on tracker are given by users of a site, and the administration does not bear the responsibility for their maintenance. The request to not fill in the files protected by copyrights, and also files of the illegal maintenance!

    [Profile] [PM]
    Display posts from previous:    
    Reply to topic

    The time now is: Today 22:51

    All times are GMT + 3 Hours

    You cannot post new topics in this forum
    You cannot reply to topics in this forum
    You cannot edit your posts in this forum
    You cannot delete your posts in this forum
    You cannot vote in polls in this forum
    You cannot attach files in this forum
    You cannot download files in this forum