BitTorrentTracker PerecTracker.org
BitTorrentTracker PerecTracker.org
    
Регистрация  ·  Вход
 
 · 
Забыли пароль?

  • Деревья на асфальте (Владимир Колос) [1984, драма, DVB]

    Ответить на тему
     
    Автор Сообщение

    Light

    Создавать темы 08-Дек-2015 23:09

           

    [Цитировать]

    Деревья на асфальте
    06/11/15 торрент обновен, запись ТК "Наше кино" заменена записью ТК "Ямал-регион". Преимущества на сравнении, битрейт 4400 против 2200
    Жанр: драма
    Год выпуска: 1984
    Продолжительность: 01:15:02
    Режиссёр: Владимир Колос
    В ролях: Галина Макарова, Леонид Кулагин, Светлана Кузьмина, Виктор Мирный, Наталья Волчек, Николай Крюков, Татьяна Алексеева, Анатолий Панихин, Здислав Стомма, Евгения Ковалёва, Александр Збиренко
    Описание: Добрая, душевная Анна Тимофеевна с болью покидала свой деревенский дом, своих односельчан. Сын Степан, опасаясь за здоровье матери, уговорил ее переехать в город
    Доп. информация: Запись потока *.ts со спутника ЯМАЛ 401, 90° в.д.., ремукс в *.mkv программой VideoReDo.
    Качество видео: DVB
    Формат видео: MKV
    Видео: MPEG Video, 704(768)x576 (4:3), 25,000 кадров/сек, 4383 Кбит/сек
    Аудио: MPEG Audio, 48,0 КГц, 192 Кбит/сек, 1 канал

    MediaInfo

    Общее
    Уникальный идентификатор : 73981518883858356370743793330187379393 (0x37A8527F4D3156EA82F0FA4AA727A2C1)
    Полное имя : T:\MPG\ДЕРЕВЬЯ НА АСФАЛЬТЕ (YAMAL).mkv
    Формат : Matroska
    Версия формата : Version 2
    Размер файла : 2,45 Гбайт
    Продолжительность : 1 ч. 15 м.
    Режим общего битрейта : Переменный
    Общий поток : 4668 Кбит/сек
    Программа кодирования : Lavf52.64.2
    Библиотека кодирования : Lavf52.64.2
    Видео
    Идентификатор : 1
    Формат : MPEG Video
    Версия формата : Version 2
    Профиль формата : Main@Main
    Параметр BVOP формата : Нет
    Параметр матрицы формата : Выборочная
    Идентификатор кодека : V_MPEG2
    Идентификатор кодека/Информация : MPEG 1 or 2 Video
    Продолжительность : 1 ч. 15 м.
    Вид битрейта : Переменный
    Битрейт : 4383 Кбит/сек
    Максимальный битрейт : 4478 Кбит/сек
    Ширина : 704 пикселя
    Высота : 576 пикселей
    Соотношение сторон : 4:3
    Соотношение сторон в оригинале : 4:3
    Режим частоты кадров : Постоянный
    Частота кадров : 25,000 кадров/сек
    Стандарт вещания : PAL
    Цветовое пространство : YUV
    Субдискретизация насыщенности : 4:2:0
    Битовая глубина : 8 бит
    Тип развёртки : Чересстрочная
    Порядок развёртки : Верхнее поле первое
    Метод сжатия : С потерями
    Бит/(Пиксели*Кадры) : 0.432
    Временной код первого кадра : 00:00:00:00
    Оригинал временного кода : Group of pictures header
    Размер потока : 2,30 Гбайт (94%)
    Default : Да
    Forced : Нет
    Аудио
    Идентификатор : 2
    Формат : MPEG Audio
    Версия формата : Version 1
    Профиль формата : Layer 2
    Идентификатор кодека : A_MPEG/L2
    Идентификатор кодека/Подсказка : MP2
    Продолжительность : 1 ч. 15 м.
    Вид битрейта : Постоянный
    Битрейт : 192 Кбит/сек
    Каналы : 1 канал
    Частота : 48,0 КГц
    Метод сжатия : С потерями
    Задержка видео : -1 м. 5 с.
    Размер потока : 103 Мбайт (4%)
    Язык : Russian
    Default : Да
    Forced : Нет

    Скриншоты

    Скачать .torrent

    Скачать торрент-файл бесплатно и на максимальной скорости!

    Как скачивать? · Что такое торрент? · Рейтинг и ограничения

    !ВНИМАНИЕ!
    Сайт не распространяет и не хранит электронные версии произведений, а занимается лишь лишь предоставлением доступа к создаваемому пользователями каталогу ссылок на торрент-файлы, которые содержат только списки хеш-сумм, убедительная просьба с жалобами обращаться напрямую к пользователю. Файлы для обмена на трекере предоставлены пользователями сайта, и администрация не несёт ответственности за их содержание. Просьба не заливать файлы, защищенные авторскими правами, а также файлы нелегального содержания!


    _________________
    [Профиль] [ЛС]
    Показать сообщения:    
    Ответить на тему

    Текущее время: Сегодня, в 22:32

    Часовой пояс: GMT + 2



    Вы не можете начинать темы
    Вы не можете отвечать на сообщения
    Вы не можете редактировать свои сообщения
    Вы не можете удалять свои сообщения
    Вы не можете голосовать в опросах
    Вы не можете прикреплять файлы к сообщениям
    Вы не можете скачивать файлы