BitTorrentTracker PerecTracker.org
BitTorrentTracker PerecTracker.org
    
Регистрация  ·  Вход
 
 · 
Забыли пароль?

  • Черный бизнес (Василий Журавлёв) [1965 г., детектив, шпионский фильм, SATRip]

    Ответить на тему
     
    Автор Сообщение

    Light

    Создавать темы 08-Дек-2015 23:09

           

    [Цитировать]

    Черный бизнесГод выпуска: 1965.
    Жанр: детектив, шпионский фильм.
    Продолжительность: 01:36:23.
    Режиссер: Василий Журавлёв.
    В ролях:
    Иван Переверзев, Геннадий Юдин, Юрий Саранцев, Маргарита Володина, Станислав Михин, Аркадий Толбузин, Виктор Кулаков, Муза Крепкогорская, Феликс Яворский, Павел Винник, Марианна Стриженова, Константин Худяков, Виктор Колпаков, Александр Смирнов, Елена Максимова, Григорий Шпигель.
    Описание:
    В качестве туристки в СССР приезжает опытная разведчица. Сотрудникам Комитета госбезопасности удается выяснить истинную причину визита мисс Ластер, выявить все ее многочисленные связи с агентами иностранной разведки, разоблачить и ликвидировать преступников.
    Доп. информация:
    Страна: СССР .
    Киностудия: Мосфильм.
    Авторы сценария: Василий Журавлёв, Николай Жуков.
    Оператор: Николай Большаков.
    Композитор: Эдисон Денисов.
    Художник-постановщик: Александр Жаренов.
    Премьера: 2 июня 1965 года.

    Еще постеры

    Релиз
    Рип с этой раздачи.
    Большое спасибо Cheef mate за предоставленый материал для рипа!!!

    Качество: SATRip
    Формат: AVI
    Видео: 672x512 (1.31:1), 25 fps, XviD MPEG-4 ~2004 kbps avg, 0.23 bit/pixel
    Аудио: 48 kHz, AC3 Dolby Digital, 2/0 (L,R) ch, ~192 kbps

    Отчет MI

    General
    Complete name : Chyornyj.bizness.1965.XviD.SATRip.fenixclub_1.48.avi
    Format : AVI
    Format/Info : Audio Video Interleave
    File size : 1.49 GiB
    Duration : 1h 36mn
    Overall bit rate : 2 206 Kbps
    Writing library : VirtualDub build 35491/release
    Video
    ID : 0
    Format : MPEG-4 Visual
    Format profile : Advanced Simple@L5
    Format settings, BVOP : 2
    Format settings, QPel : No
    Format settings, GMC : No warppoints
    Format settings, Matrix : Default (MPEG)
    Codec ID : XVID
    Codec ID/Hint : XviD
    Duration : 1h 36mn
    Bit rate : 2 004 Kbps
    Width : 672 pixels
    Height : 512 pixels
    Display aspect ratio : 4:3
    Frame rate : 25.000 fps
    Color space : YUV
    Chroma subsampling : 4:2:0
    Bit depth : 8 bits
    Scan type : Progressive
    Compression mode : Lossy
    Bits/(Pixel*Frame) : 0.233
    Stream size : 1.35 GiB (91%)
    Writing library : XviD 73
    Audio
    ID : 1
    Format : AC-3
    Format/Info : Audio Coding 3
    Mode extension : CM (complete main)
    Format settings, Endianness : Big
    Codec ID : 2000
    Duration : 1h 36mn
    Bit rate mode : Constant
    Bit rate : 192 Kbps
    Channel(s) : 2 channels
    Channel positions : Front: L R
    Sampling rate : 48.0 KHz
    Compression mode : Lossy
    Stream size : 132 MiB (9%)
    Alignment : Aligned on interleaves
    Interleave, duration : 40 ms (1.00 video frame)
    Interleave, preload duratio : 512 ms
    Скриншоты

    Альтернативный хост

    Скачать .torrent

    Скачать торрент-файл бесплатно и на максимальной скорости!

    Как скачивать? · Что такое торрент? · Рейтинг и ограничения

    !ВНИМАНИЕ!
    Сайт не распространяет и не хранит электронные версии произведений, а занимается лишь лишь предоставлением доступа к создаваемому пользователями каталогу ссылок на торрент-файлы, которые содержат только списки хеш-сумм, убедительная просьба с жалобами обращаться напрямую к пользователю. Файлы для обмена на трекере предоставлены пользователями сайта, и администрация не несёт ответственности за их содержание. Просьба не заливать файлы, защищенные авторскими правами, а также файлы нелегального содержания!


    _________________
    [Профиль] [ЛС]
    Показать сообщения:    
    Ответить на тему

    Текущее время: Сегодня, в 06:08

    Часовой пояс: GMT + 2



    Вы не можете начинать темы
    Вы не можете отвечать на сообщения
    Вы не можете редактировать свои сообщения
    Вы не можете удалять свои сообщения
    Вы не можете голосовать в опросах
    Вы не можете прикреплять файлы к сообщениям
    Вы не можете скачивать файлы