BitTorrentTracker PerecTracker.org
BitTorrentTracker PerecTracker.org
    
Регистрация  ·  Вход
 
 · 
Забыли пароль?

  • Приключения бурундучков / The Chipmunk Adventure (Дженис Кармэн / Janice Karman) [1987, мультфильм, мюзикл, фэнтези, комедия, приключения, семейный, HDRip] VO

    Ответить на тему
     
    Автор Сообщение

    rechyn

    Создавать темы 08-Дек-2015 23:09

           

    [Цитировать]

    Приключения бурундучков / The Chipmunk Adventure
    Страна: США
    Жанр: мультфильм, мюзикл, фэнтези, комедия, приключения, семейный
    Продолжительность: 01:17:02
    Год выпуска: 1987
    Перевод: Одноголосый закадровый
    Русские субтитры: нет
    Режиссёр: Дженис Кармэн / Janice Karman
    Роли озвучивали: Росс Багдасарян мл., Дженис Карман, Доди Гудмен, Сьюзен Тиррел, Энтони Де Лонгис, Фрэнк Уэлкер, Нэнси Картрайт, Филип Л. Кларк, Кен Сэнсом, Джордж Поулос
    Описание: Любимое трио — Элвин, Саймон и Теодор — в полнометражном мультфильме. Элвин заключает пари со своими друзьями. Тот, кто победит в гонках вокруг света, получит приз в 100 000 долларов. Но не все так легко, как кажется. На пути возникают препятствия, через которые им помогает пройти настоящая дружба.

    Качество: HDRip
    Формат: AVI
    Видео: Xvid, 688x384 (1.79:1), 23.976 fps, XviD build 73 ~1210 kbps avg, 0.19 bit/pixel
    Аудио: Mp3, 48 kHz, MPEG Layer 3, 2 ch, ~128.00 kbps avg
    Субтитры: отсутствуют

    Подробные технические данные

    Complete name : Priklyucheniya.burunduchkov.1987.HDRip.aviFormat : AVIFormat/Info : Audio Video InterleaveFile size : 743 MiBDuration : 1h 17mnOverall bit rate : 1 348 KbpsWriting application : VirtualDubMod 1.5.10.2 (build 2540/release)Writing library : VirtualDubMod build 2540/release
    VideoID : 0Format : MPEG-4 VisualFormat profile : Advanced Simple@L5Format settings, BVOP : 2Format settings, QPel : NoFormat settings, GMC : No warppointsFormat settings, Matrix : Default (H.263)Codec ID : XVIDCodec ID/Hint : XviDDuration : 1h 17mnBit rate : 1 211 KbpsWidth : 688 pixelsHeight : 384 pixelsDisplay aspect ratio : 16:9Frame rate : 23.976 fpsColor space : YUVChroma subsampling : 4:2:0Bit depth : 8 bitsScan type : ProgressiveCompression mode : LossyBits/(Pixel*Frame) : 0.191Stream size : 667 MiB (90%)Writing library : XviD 73
    AudioID : 1Format : MPEG AudioFormat version : Version 1Format profile : Layer 3Codec ID : 55Codec ID/Hint : MP3Duration : 1h 17mnBit rate mode : ConstantBit rate : 128 KbpsChannel(s) : 2 channelsSampling rate : 48.0 KHzCompression mode : LossyStream size : 70.5 MiB (9%)Alignment : Aligned on interleavesInterleave, duration : 42 ms (1.00 video frame)Interleave, preload duration : 504 msWriting library : LAME3.99rEncoding settings : -m s -V 4 -q 2 -lowpass 17 -b 128

    Скриншоты

    Скачать .torrent

    Скачать торрент-файл бесплатно и на максимальной скорости!

    Как скачивать? · Что такое торрент? · Рейтинг и ограничения

    !ВНИМАНИЕ!
    Сайт не распространяет и не хранит электронные версии произведений, а занимается лишь лишь предоставлением доступа к создаваемому пользователями каталогу ссылок на торрент-файлы, которые содержат только списки хеш-сумм, убедительная просьба с жалобами обращаться напрямую к пользователю. Файлы для обмена на трекере предоставлены пользователями сайта, и администрация не несёт ответственности за их содержание. Просьба не заливать файлы, защищенные авторскими правами, а также файлы нелегального содержания!


    _________________
    [Профиль] [ЛС]
    Показать сообщения:    
    Ответить на тему

    Текущее время: Сегодня, в 06:08

    Часовой пояс: GMT + 2



    Вы не можете начинать темы
    Вы не можете отвечать на сообщения
    Вы не можете редактировать свои сообщения
    Вы не можете удалять свои сообщения
    Вы не можете голосовать в опросах
    Вы не можете прикреплять файлы к сообщениям
    Вы не можете скачивать файлы