Register  ·  Log in
Forgot password?

  • Приключения бурундучков / The Chipmunk Adventure (Дженис Кармэн / Janice Karman) [1987, мультфильм, мюзикл, фэнтези, комедия, приключения, семейный, HDRip] VO

    Reply to topic
    Author Message


    Post 09-Dec-2015 00:09



    Приключения бурундучков / The Chipmunk Adventure
    Страна: США
    Жанр: мультфильм, мюзикл, фэнтези, комедия, приключения, семейный
    Продолжительность: 01:17:02
    Год выпуска: 1987
    Перевод: Одноголосый закадровый
    Русские субтитры: нет
    Режиссёр: Дженис Кармэн / Janice Karman
    Роли озвучивали: Росс Багдасарян мл., Дженис Карман, Доди Гудмен, Сьюзен Тиррел, Энтони Де Лонгис, Фрэнк Уэлкер, Нэнси Картрайт, Филип Л. Кларк, Кен Сэнсом, Джордж Поулос
    Описание: Любимое трио — Элвин, Саймон и Теодор — в полнометражном мультфильме. Элвин заключает пари со своими друзьями. Тот, кто победит в гонках вокруг света, получит приз в 100 000 долларов. Но не все так легко, как кажется. На пути возникают препятствия, через которые им помогает пройти настоящая дружба.

    Качество: HDRip
    Формат: AVI
    Видео: Xvid, 688x384 (1.79:1), 23.976 fps, XviD build 73 ~1210 kbps avg, 0.19 bit/pixel
    Аудио: Mp3, 48 kHz, MPEG Layer 3, 2 ch, ~128.00 kbps avg
    Субтитры: отсутствуют

    Подробные технические данные

    Complete name : Priklyucheniya.burunduchkov.1987.HDRip.aviFormat : AVIFormat/Info : Audio Video InterleaveFile size : 743 MiBDuration : 1h 17mnOverall bit rate : 1 348 KbpsWriting application : VirtualDubMod (build 2540/release)Writing library : VirtualDubMod build 2540/release
    VideoID : 0Format : MPEG-4 VisualFormat profile : Advanced Simple@L5Format settings, BVOP : 2Format settings, QPel : NoFormat settings, GMC : No warppointsFormat settings, Matrix : Default (H.263)Codec ID : XVIDCodec ID/Hint : XviDDuration : 1h 17mnBit rate : 1 211 KbpsWidth : 688 pixelsHeight : 384 pixelsDisplay aspect ratio : 16:9Frame rate : 23.976 fpsColor space : YUVChroma subsampling : 4:2:0Bit depth : 8 bitsScan type : ProgressiveCompression mode : LossyBits/(Pixel*Frame) : 0.191Stream size : 667 MiB (90%)Writing library : XviD 73
    AudioID : 1Format : MPEG AudioFormat version : Version 1Format profile : Layer 3Codec ID : 55Codec ID/Hint : MP3Duration : 1h 17mnBit rate mode : ConstantBit rate : 128 KbpsChannel(s) : 2 channelsSampling rate : 48.0 KHzCompression mode : LossyStream size : 70.5 MiB (9%)Alignment : Aligned on interleavesInterleave, duration : 42 ms (1.00 video frame)Interleave, preload duration : 504 msWriting library : LAME3.99rEncoding settings : -m s -V 4 -q 2 -lowpass 17 -b 128


    Download .torrent

    Download free and at maximum speed!

    How to Download? · What is a torrent? · Ratings and Limitations

    The site does not extend and does not store electronic(digital) versions of products, and only gives access to a reference catalogue created by users on torrent-files which contain only lists of the hash-sums, the earnest entreaty, with complaints(abuse) to access directly to the user. Files for an exchange on tracker are given by users of a site, and the administration does not bear the responsibility for their maintenance. The request to not fill in the files protected by copyrights, and also files of the illegal maintenance!

    [Profile] [PM]
    Display posts from previous:    
    Reply to topic

    The time now is: Today 23:09

    All times are GMT + 3 Hours

    You cannot post new topics in this forum
    You cannot reply to topics in this forum
    You cannot edit your posts in this forum
    You cannot delete your posts in this forum
    You cannot vote in polls in this forum
    You cannot attach files in this forum
    You cannot download files in this forum