BitTorrentTracker PerecTracker.org
BitTorrentTracker PerecTracker.org
    
Регистрация  ·  Вход
 
 · 
Забыли пароль?

  • Рождественское приключение / Abominable Christmas (Чад Ван Де Кир / Chad Van De Keere) [2012, мультфильм, семейный, DVDRip] Dub

    Ответить на тему
     
    Автор Сообщение

    rechyn

    Создавать темы 08-Дек-2015 23:09

           

    [Цитировать]

    Рождественское приключение / Abominable Christmas-Страна: США
    Жанр: мультфильм, семейный
    Год выпуска: 2012
    Продолжительность: 00:43:37
    Перевод: Профессиональный (полное дублирование)
    Субтитры: Нет-Режиссер: Чад Ван Де Кир / Chad Van De Keere-Описание: В Рождество нет ничего невозможного! Особенно, если ты снежный человек! Веселая семейка мохнатых созданий живет высоко в горах и собирается спуститься в город, где люди готовятся к празднованию самого сказочного праздника в году! Они не сомневаются, что жители примут пушистых гостей радушно, но как на самом деле развернутся события?-Рейтинг:
    -Мировая премьера: 24 декабря 2012-Релиз: -Доп. информация: Запись звука с эфира (канал "Дисней") и синхронизация с DVD - xfiles.-Семпл-Качество: DVDRip
    Формат: AVI
    Видео: 720x400 (1.80:1), 23.976 fps, XviD build 65 ~2177 kbps avg, 0.32 bit/pixel
    Аудио: 48 kHz, AC3 Dolby Digital, 2/0 (L,R) ch, ~192 kbps
    Субтитры: Отсутствуют

    MI

    Format : AVIFormat/Info : Audio Video InterleaveFile size : 742 MiBDuration : 43mn 37sOverall bit rate : 2 379 KbpsWriting application : VirtualDubMod 1.5.10.3 | www.virtualdub-fr.org || (build 2550/release)Writing library : VirtualDubMod build 2550/release
    VideoID : 0Format : MPEG-4 VisualFormat profile : Advanced Simple@L5Format settings, BVOP : 2Format settings, QPel : NoFormat settings, GMC : No warppointsFormat settings, Matrix : CustomCodec ID : XVIDCodec ID/Hint : XviDDuration : 43mn 37sBit rate : 2 178 KbpsWidth : 720 pixelsHeight : 400 pixelsDisplay aspect ratio : 16:9Frame rate : 23.976 fpsColor space : YUVChroma subsampling : 4:2:0Bit depth : 8 bitsScan type : ProgressiveCompression mode : LossyBits/(Pixel*Frame) : 0.315Stream size : 680 MiB (92%)Writing library : XviD 65
    AudioID : 1Format : AC-3Format/Info : Audio Coding 3Mode extension : CM (complete main)Format settings, Endianness : BigCodec ID : 2000Duration : 43mn 37sBit rate mode : ConstantBit rate : 192 KbpsChannel count : 2 channelsChannel positions : Front: L RSampling rate : 48.0 KHzBit depth : 16 bitsCompression mode : LossyStream size : 59.9 MiB (8%)Alignment : Split accross interleavesInterleave, duration : 42 ms (1.00 video frame)Interleave, preload duration : 500 ms
    -
    Скачать .torrent

    Скачать торрент-файл бесплатно и на максимальной скорости!

    Как скачивать? · Что такое торрент? · Рейтинг и ограничения

    !ВНИМАНИЕ!
    Сайт не распространяет и не хранит электронные версии произведений, а занимается лишь лишь предоставлением доступа к создаваемому пользователями каталогу ссылок на торрент-файлы, которые содержат только списки хеш-сумм, убедительная просьба с жалобами обращаться напрямую к пользователю. Файлы для обмена на трекере предоставлены пользователями сайта, и администрация не несёт ответственности за их содержание. Просьба не заливать файлы, защищенные авторскими правами, а также файлы нелегального содержания!


    _________________
    [Профиль] [ЛС]
    Показать сообщения:    
    Ответить на тему

    Текущее время: Сегодня, в 07:54

    Часовой пояс: GMT + 2



    Вы не можете начинать темы
    Вы не можете отвечать на сообщения
    Вы не можете редактировать свои сообщения
    Вы не можете удалять свои сообщения
    Вы не можете голосовать в опросах
    Вы не можете прикреплять файлы к сообщениям
    Вы не можете скачивать файлы