BitTorrentTracker PerecTracker.org
BitTorrentTracker PerecTracker.org
    
Регистрация  ·  Вход
 
 · 
Забыли пароль?

  • Красавица и чудовище 3: Волшебный мир Белль / Belle\'s Magical World (Каллен Блейн / Cullen Blaine, Дэйл Кейс / Dale Case, Дэниэл де ла Вега / Daniel de la Vega) [1998, мультфильм, фэнтези, комедия, DVDRip] Dub

    Ответить на тему
     
    Автор Сообщение

    rechyn

    Создавать темы 08-Дек-2015 23:09

           

    [Цитировать]

    Красавица и чудовище 3: Волшебный мир Белль / Belle's Magical World«3 Magical Storybook Adventures»-Страна: США
    Жанр: мультфильм, фэнтези, комедия, семейный, музыка
    Год выпуска: 1998
    Продолжительность: 01:31:47
    Перевод: Профессиональный (дублированный) "Невафильм"
    Субтитры: Нет-Режиссер: Каллен Блейн / Cullen Blaine, Дэйл Кейс / Dale Case, Дэниэл де ла Вега / Daniel de la Vega-Описание: Мультфильм состоит из трех историй, происходящих в замке чудовища: «Идеальный мир», «Глупость Фифи» и «Сломанное крыло». Они поведают Вам об отношениях Бель и Чудовища, а также о приключениях многим полюбившихся персонажей: Люмьера, Фифи и других...-Рейтинг:

    MPAA: - Нет возрастных ограничений-Мировая премьера: 17 февраля 1998-Релиз: -Доп. информация: Когда фильм был выпущен впервые в 1998 году на VHS, он состоял из трёх эпизодов - "Идеальное слово", "Глупость Фифи" и "Сломанное крыло" и имел продолжительность 70 минут. Именно эту версию переводили Визгунов и Кашкин. В 2003 году фильм был выпущен на DVD с пометкой "Специальное издание" и включил в себя еще один эпизод - "Вечеринка миссис Потт", продолжительностью 22 минуты.
    Благодарности:
    За исходный DVD спасибо Genry13.-Качество: DVDRip
    Формат: AVI
    Видео: 640x480 (1.33:1), 29.970 fps, XviD build 65 ~996 kbps avg, 0.11 bit/pixel
    Аудио: 48 kHz, MPEG Layer 3, 2 ch, ~128.00 kbps avg
    Субтитры: Отсутствуют-

    MI

    Format : AVIFormat/Info : Audio Video InterleaveFile size : 746 MiBDuration : 1h 31mnOverall bit rate : 1 136 KbpsWriting application : VirtualDubMod 1.5.10.3 | www.virtualdub-fr.org || (build 2550/release)Writing library : VirtualDubMod build 2550/release
    VideoID : 0Format : MPEG-4 VisualFormat profile : Advanced Simple@L5Format settings, BVOP : 2Format settings, QPel : NoFormat settings, GMC : No warppointsFormat settings, Matrix : CustomCodec ID : XVIDCodec ID/Hint : XviDDuration : 1h 31mnBit rate : 997 KbpsWidth : 640 pixelsHeight : 480 pixelsDisplay aspect ratio : 4:3Frame rate : 29.970 fpsColor space : YUVChroma subsampling : 4:2:0Bit depth : 8 bitsScan type : ProgressiveCompression mode : LossyBits/(Pixel*Frame) : 0.108Stream size : 654 MiB (88%)Writing library : XviD 65
    AudioID : 1Format : MPEG AudioFormat version : Version 1Format profile : Layer 3Codec ID : 55Codec ID/Hint : MP3Duration : 1h 31mnBit rate mode : ConstantBit rate : 128 KbpsChannel count : 2 channelsSampling rate : 48.0 KHzCompression mode : LossyStream size : 84.0 MiB (11%)Alignment : Aligned on interleavesInterleave, duration : 33 ms (1.00 video frame)Interleave, preload duration : 504 msWriting library : LAME3.99rEncoding settings : -m s -V 4 -q 2 -lowpass 17 -b 128
    Скачать .torrent

    Скачать торрент-файл бесплатно и на максимальной скорости!

    Как скачивать? · Что такое торрент? · Рейтинг и ограничения

    !ВНИМАНИЕ!
    Сайт не распространяет и не хранит электронные версии произведений, а занимается лишь лишь предоставлением доступа к создаваемому пользователями каталогу ссылок на торрент-файлы, которые содержат только списки хеш-сумм, убедительная просьба с жалобами обращаться напрямую к пользователю. Файлы для обмена на трекере предоставлены пользователями сайта, и администрация не несёт ответственности за их содержание. Просьба не заливать файлы, защищенные авторскими правами, а также файлы нелегального содержания!


    _________________
    [Профиль] [ЛС]
    Показать сообщения:    
    Ответить на тему

    Текущее время: Сегодня, в 04:07

    Часовой пояс: GMT + 2



    Вы не можете начинать темы
    Вы не можете отвечать на сообщения
    Вы не можете редактировать свои сообщения
    Вы не можете удалять свои сообщения
    Вы не можете голосовать в опросах
    Вы не можете прикреплять файлы к сообщениям
    Вы не можете скачивать файлы