BitTorrentTracker PerecTracker.org
BitTorrentTracker PerecTracker.org
    
Регистрация  ·  Вход
 
 · 
Забыли пароль?

  • Красавица и чудовище: Чудесное Рождество / Beauty and the Beast: The Enchanted Christmas (Эндрю Найт / Andrew Knight) [1997, мультфильм, фэнтези, семейный, BDRip] 2xAvo (Живов, Кашкин) + 2xVo (Антонов, неизвестный)

    Ответить на тему
     
    Автор Сообщение

    rechyn

    Создавать темы 08-Дек-2015 23:09

           

    [Цитировать]

    Красавица и чудовище: Чудесное Рождество / Beauty and the Beast: The Enchanted Christmas-Страна: США, Канада
    Жанр: мультфильм, фэнтези, семейный, музыка
    Год выпуска: 1997
    Продолжительность: 01:10:43
    Перевод 1: Авторский (одноголосый закадровый) Юрий Живов
    Перевод 2: Авторский (одноголосый закадровый) Александр Кашкин
    Перевод 3: Одноголосый (закадровый) Николай "Антонов" /переговор перевода Кашкина/
    Перевод 4: Одноголосый (закадровый) неизвестный /переговор перевода Кашкина/
    Субтитры: Нет-Режиссер: Эндрю Найт / Andrew Knight-Описание: Любовь Белл к чудовищу изменила все вокруг и теперь все заколдованные предметы в замке снова стали людьми, даже маленький Чип, некогда бывший всего лишь маленькой чашечкой. В свое первое Рождество, которое Чип встречает не как чашечка, а как мальчик, он просит маму рассказать, что же на самом деле случилось в замке прошлым Рождеством. Рождество - это время волшебства, но сильнее всего на свете оно в замке чудовища. Время тьмы и горя ушло навеки, но что способствовало этому?-Рейтинг:

    MPAA: - Нет возрастных ограничений-Мировая премьера: 11 ноября 1997-Доп. информация:
    За любезно предоставленные чистые голоса Юрия Живова и Александра Кашкина спасибо multmir и GVR232. Дорожки с этими переводами получены путём наложения голосов на декодированный центральный канал оригинальной DTS-HD MA дорожки.
    За звуковую дорожку Николая "Антонова" спасибо каак, за дорожку с неизвестным персонажем спасибо fotomoto.
    Дубляж "Невафильм" из коллекции xfiles.
    Работа со звуком - xfiles.-Релиз: -Качество: BDRip [Beauty.and.the.Beast.The.Enchanted.Christmas.1997.BDRemux.1080p.x264-xfiles.rutracker.mkv]
    Формат: AVI
    Видео: 720x400 (1.80:1), 23.976 fps, XviD build 65 ~2314 kbps avg, 0.34 bit/pixel
    Аудио #1: Русский, 48 kHz, AC3 Dolby Digital, 3/2 (L,C,R,l,r) + LFE ch, ~448 kbps - Одноголосый закадровый | Юрий Живов
    Аудио #2: Русский, 48 kHz, AC3 Dolby Digital, 3/2 (L,C,R,l,r) + LFE ch, ~448 kbps - Одноголосый закадровый | Александр Кашкин - Отдельным файлом
    Аудио #3: Русский, 48.0 KHz, AC3, 2 ch, 192 kbps - Одноголосый закадровый | Николай "Антонов" [VHS Hi-Fi] - Отдельным файлом
    Аудио #4: Русский, 48.0 KHz, AC3, 1 ch, 192 kbps - Одноголосый закадровый | Неизвестный [VHS] - Отдельным файлом
    Субтитры: Отсутствуют-

    MI

    Format : AVIFormat/Info : Audio Video InterleaveFile size : 1.37 GiBDuration : 1h 10mnOverall bit rate : 2 772 KbpsWriting application : VirtualDubMod 1.5.10.3 | www.virtualdub-fr.org || (build 2550/release)Writing library : VirtualDubMod build 2550/release
    VideoID : 0Format : MPEG-4 VisualFormat profile : Advanced Simple@L5Format settings, BVOP : 2Format settings, QPel : NoFormat settings, GMC : No warppointsFormat settings, Matrix : CustomCodec ID : XVIDCodec ID/Hint : XviDDuration : 1h 10mnBit rate : 2 315 KbpsWidth : 720 pixelsHeight : 400 pixelsDisplay aspect ratio : 16:9Frame rate : 23.976 fpsColor space : YUVChroma subsampling : 4:2:0Bit depth : 8 bitsScan type : ProgressiveCompression mode : LossyBits/(Pixel*Frame) : 0.335Stream size : 1.14 GiB (83%)Writing library : XviD 65
    AudioID : 1Format : AC-3Format/Info : Audio Coding 3Mode extension : CM (complete main)Format settings, Endianness : BigCodec ID : 2000Duration : 1h 10mnBit rate mode : ConstantBit rate : 448 KbpsChannel count : 6 channelsChannel positions : Front: L C R, Side: L R, LFESampling rate : 48.0 KHzBit depth : 16 bitsCompression mode : LossyStream size : 227 MiB (16%)Alignment : Split accross interleavesInterleave, duration : 42 ms (1.00 video frame)Interleave, preload duration : 500 ms
    Скачать .torrent

    Скачать торрент-файл бесплатно и на максимальной скорости!

    Как скачивать? · Что такое торрент? · Рейтинг и ограничения

    !ВНИМАНИЕ!
    Сайт не распространяет и не хранит электронные версии произведений, а занимается лишь лишь предоставлением доступа к создаваемому пользователями каталогу ссылок на торрент-файлы, которые содержат только списки хеш-сумм, убедительная просьба с жалобами обращаться напрямую к пользователю. Файлы для обмена на трекере предоставлены пользователями сайта, и администрация не несёт ответственности за их содержание. Просьба не заливать файлы, защищенные авторскими правами, а также файлы нелегального содержания!


    _________________
    [Профиль] [ЛС]
    Показать сообщения:    
    Ответить на тему

    Текущее время: Сегодня, в 22:01

    Часовой пояс: GMT + 2



    Вы не можете начинать темы
    Вы не можете отвечать на сообщения
    Вы не можете редактировать свои сообщения
    Вы не можете удалять свои сообщения
    Вы не можете голосовать в опросах
    Вы не можете прикреплять файлы к сообщениям
    Вы не можете скачивать файлы