Register  ·  Log in
Forgot password?

  • Официальные правила футбола / The Official Rules Of Football (Клаудио Бьерн Бойд / Claudio Biern Boyd) [1999 г., Анимационный, DVDRip] VO

    Reply to topic
    Author Message


    Post 09-Dec-2015 00:09



    Официальные правила футбола / The Official Rules Of Football
    Год выпуска: 1999
    Страна: Испания
    Жанр: Анимационный
    Продолжительность: 01:10:42
    Перевод: Профессиональный (одноголосый закадровый)
    Русские субтитры: нет
    Режиссер: Клаудио Бьерн Бойд / Claudio Biern Boyd
    Описание: Быть хорошим футболистом или даже хорошим футбольным фанатом - этого еще не достаточно для того, чтобы знать все о справедливой игре и спортивном мастерстве, ты должен знать правила игры от начала и до конца. Например, можно ли выиграть только забивая голы? Может - ли рефери удалить игрока в течение получасового интервала? Все ли футболисты должны быть белыми? Вы найдете ответы на все вопросы в "официальных правилах футбола" первом мультфильме, объясняющем современные правила "короля спорта" в простой, доходчивой форме, подкрепленные сотнями смешных историй и практических примеров.
    Качество: DVDRip
    Формат: AVI
    Видео: 576x432 (1.33:1), 25 fps, XviD MPEG-4 ~1247 kbps avg, 0.20 bit/pixel
    Аудио: 48 kHz, MPEG Layer 3, 2 ch, ~128.00 kbps avg



    Complete name : Oficialnye.pravila.futbola.2001.XviD.DVDRip.avi
    Format : AVI
    Format/Info : Audio Video Interleave
    File size : 701 MiB
    Duration : 1h 10mn
    Overall bit rate : 1 386 Kbps
    Movie name : Официальные правила футбола / Official Rules Of Football, The (2001)
    Copyright : HeDgEhOt®
    ID : 0
    Format : MPEG-4 Visual
    Format profile : Advanced Simple@L5
    Format settings, BVOP : 1
    Format settings, QPel : No
    Format settings, GMC : No warppoints
    Format settings, Matrix : Custom
    Muxing mode : Packed bitstream
    Codec ID : XVID
    Codec ID/Hint : XviD
    Duration : 1h 10mn
    Bit rate : 1 248 Kbps
    Width : 576 pixels
    Height : 432 pixels
    Display aspect ratio : 4:3
    Frame rate : 25.000 fps
    Color space : YUV
    Chroma subsampling : 4:2:0
    Bit depth : 8 bits
    Scan type : Progressive
    Compression mode : Lossy
    Bits/(Pixel*Frame) : 0.201
    Stream size : 631 MiB (90%)
    Writing library : XviD 1.1.2 (UTC 2006-11-01)
    ID : 1
    Format : MPEG Audio
    Format version : Version 1
    Format profile : Layer 3
    Mode : Joint stereo
    Mode extension : MS Stereo
    Codec ID : 55
    Codec ID/Hint : MP3
    Duration : 1h 10mn
    Bit rate mode : Constant
    Bit rate : 128 Kbps
    Channel(s) : 2 channels
    Sampling rate : 48.0 KHz
    Compression mode : Lossy
    Stream size : 64.7 MiB (9%)
    Alignment : Aligned on interleaves
    Interleave, duration : 40 ms (1.00 video frame)
    Interleave, preload duration : 504 ms
    Writing library : LAME3.97b
    Encoding settings : -m j -V 4 -q 2 -lowpass 17 -b 128
    Language : Русский
    Download .torrent

    Download free and at maximum speed!

    How to Download? · What is a torrent? · Ratings and Limitations

    The site does not extend and does not store electronic(digital) versions of products, and only gives access to a reference catalogue created by users on torrent-files which contain only lists of the hash-sums, the earnest entreaty, with complaints(abuse) to access directly to the user. Files for an exchange on tracker are given by users of a site, and the administration does not bear the responsibility for their maintenance. The request to not fill in the files protected by copyrights, and also files of the illegal maintenance!

    [Profile] [PM]
    Display posts from previous:    
    Reply to topic

    The time now is: Today 18:29

    All times are GMT + 3 Hours

    You cannot post new topics in this forum
    You cannot reply to topics in this forum
    You cannot edit your posts in this forum
    You cannot delete your posts in this forum
    You cannot vote in polls in this forum
    You cannot attach files in this forum
    You cannot download files in this forum